<?xml version="1.0" standalone="no"?><!DOCTYPE svg PUBLIC "-//W3C//DTD SVG 1.1//EN" "http://www.w3.org/Graphics/SVG/1.1/DTD/svg11.dtd" ><svg xmlns="http://www.w3.org/2000/svg"><metadata></metadata><defs><font id="1.0.0;UKWN;SmileySans-Oblique" horiz-adv-x="800"><font-face font-family="Smiley Sans Oblique" font-weight="400" font-stretch="normal" units-per-em="1000" panose-1="0 0 0 0 0 0 0 0 0 0" ascent="970" descent="-230" x-height="0" bbox="-28 -105 824 907" underline-thickness="50" underline-position="-100" unicode-range="U+4e00-9f9f" /><missing-glyph horiz-adv-x="800" d="M457 600 q9 54 26.5 96.5 q17.5 42.5 49 67 q31.5 24.5 82.5 24.5 q50 0 88 -34.5 q38 -34.5 59 -102.5 l-69 -32 q-16 47 -34.5 67.5 q-18.5 20.5 -41.5 20.5 q-32 0 -49.5 -30 q-17.5 -30 -28.5 -92 l-82 15 ZM312 685 q0 -38 -27.5 -65.5 q-27.5 -27.5 -65.5 -27.5 q-38 0 -65.5 27.5 q-27.5 27.5 -27.5 65.5 q0 38 27.5 65.5 q27.5 27.5 65.5 27.5 q38 0 65.5 -27.5 q27.5 -27.5 27.5 -65.5 ZM248 278 q-41 -43 -64.5 -82 q-23.5 -39 -23.5 -79 q0 -51 41 -71.5 q41 -20.5 102 -20.5 q60 0 129.5 14.5 q69.5 14.5 135 38 q65.5 23.5 112.5 49.5 l35 -87 q-55 -31 -124 -55.5 q-69 -24.5 -141.5 -38.5 q-72.5 -14 -140.5 -14 q-69 0 -125.5 17.5 q-56.5 17.5 -90.5 56.5 q-34 39 -34 104 q0 65 36.5 124 q36.5 59 85.5 107 l67 -63 Z" /><glyph glyph-name="uni4E00" unicode="&#x4e00;" d="M767 513 l-10 -93 l-675 0 l10 93 l675 0 Z" /><glyph glyph-name="uni4E01" unicode="&#x4e01;" d="M233 112 q10 -52 25.5 -72.5 q15.5 -20.5 37.5 -20.5 q29 0 44.5 22 q15.5 22 20.5 73 l69 652 l-289 0 l9 89 l635 0 l-9 -89 l-249 0 l-69 -660 q-8 -81 -46 -134 q-38 -53 -115 -53 q-71 0 -109 47 q-38 47 -49 127 l94 19 Z" /><glyph glyph-name="uni4E03" unicode="&#x4e03;" d="M638 207 l94 -11 q-15 -144 -81 -211 q-66 -67 -175 -67 q-63 0 -110 29 q-47 29 -69 93.5 q-22 64.5 -11 168.5 l29 280 l-209 -24 l-1 95 l220 26 l32 303 l94 0 l-30 -292 l339 39 l1 -96 l-350 -40 l-30 -285 q-9 -85 3.5 -128 q12.5 -43 39 -57.5 q26.5 -14.5 60.5 -14.5 q36 1 67.5 15.5 q31.5 14.5 54.5 55.5 q23 41 32 121 Z" /><glyph glyph-name="uni4E07" unicode="&#x4e07;" d="M116 -86 l-70 63 q80 85 131.5 181 q51.5 96 83 217.5 q31.5 121.5 50.5 279.5 l13 113 l-183 0 l9 87 l640 0 l-9 -87 l-365 0 l-14 -115 q-4 -38 -9 -72 l230 0 q41 0 61 -24 q20 -24 15 -60 l-56 -407 q-10 -73 -48 -122 q-38 -49 -109 -49 q-67 0 -104.5 42 q-37.5 42 -47.5 113 l80 17 q17 -84 69 -84 q30 0 47 23.5 q17 23.5 24 75.5 l54 385 l-229 0 q-21 -122 -54 -223 q-33 -101 -83.5 -188 q-50.5 -87 -125.5 -166 Z" /><glyph glyph-name="uni4E08" unicode="&#x4e08;" d="M88 -87 l-44 86 q97 51 170 104 q73 53 127 110 q-52 80 -83.5 171 q-31.5 91 -47.5 192 l88 18 q12 -87 38.5 -163.5 q26.5 -76.5 66.5 -141.5 q60 83 91 176.5 q31 93.5 47 201.5 l-413 0 l9 87 l415 0 l15 134 l93 0 l-15 -134 l132 0 l-9 -87 l-134 0 q-18 -132 -57.5 -245.5 q-39.5 -113.5 -115.5 -212.5 q55 -64 124.5 -114 q69.5 -50 151.5 -85 l-38 -93 q-96 46 -170.5 101 q-74.5 55 -129.5 118 q-58 -60 -135 -115.5 q-77 -55.5 -176 -107.5 Z" /><glyph glyph-name="uni4E09" unicode="&#x4e09;" d="M747 833 l-10 -94 l-553 0 l10 94 l553 0 ZM680 449 l-10 -94 l-500 0 l10 94 l500 0 ZM711 37 l-10 -94 l-645 0 l10 94 l645 0 Z" /><glyph glyph-name="uni4E0A" unicode="&#x4e0a;" d="M710 25 l-9 -88 l-657 0 l9 88 l248 0 l91 863 l94 0 l-35 -329 l266 0 l-10 -93 l-265 0 l-47 -441 l315 0 Z" /><glyph glyph-name="uni4E0B" unicode="&#x4e0b;" d="M306 -80 l85 846 l-251 0 l10 90 l634 0 l-10 -90 l-288 0 l-85 -846 l-95 0 ZM747 230 l-90 -38 q-23 69 -50 137 q-27 68 -55.5 128 q-28.5 60 -54.5 105 l87 41 q44 -78 87 -174 q43 -96 76 -199 Z" /><glyph glyph-name="uni4E0D" unicode="&#x4e0d;" d="M328 -80 l58 553 q-54 -79 -125.5 -152 q-71.5 -73 -166.5 -146 l-58 80 q146 111 244.5 240 q98.5 129 146.5 265 l-287 0 l9 87 l647 0 l-9 -87 l-260 0 q-14 -40 -29 -76 l-78 -764 l-92 0 ZM754 229 l-87 -37 q-23 69 -50 137 q-27 68 -55.5 128 q-28.5 60 -54.5 105 l84 40 q44 -78 87 -174 q43 -96 76 -199 Z" /><glyph glyph-name="uni4E0E" unicode="&#x4e0e;" d="M364 868 l-21 -123 l413 0 l-10 -88 l-418 0 l-25 -146 l301 0 q45 0 65.5 -23 q20.5 -23 15.5 -58 l-39 -324 q-6 -49 -26.5 -91.5 q-20.5 -42.5 -57 -69 q-36.5 -26.5 -90.5 -26.5 q-83 0 -129.5 48 q-46.5 48 -62.5 120 l92 27 q15 -55 39 -77 q24 -22 59 -22 q37 0 57.5 28 q20.5 28 25.5 71 l37 311 l-395 0 l77 443 l92 0 ZM533 295 l-10 -88 l-440 0 l9 88 l441 0 Z" /><glyph glyph-name="uni4E11" unicode="&#x4e11;" d="M708 23 l-10 -89 l-658 0 l9 89 l177 0 l61 347 l-131 0 l9 88 l138 0 l53 296 l-171 0 l10 88 l407 0 q48 0 66.5 -25 q18.5 -25 13.5 -63 l-84 -731 l110 0 ZM395 458 l163 0 l34 296 l-144 0 l-53 -296 ZM318 23 l190 0 l40 347 l-169 0 l-61 -347 Z" /><glyph glyph-name="uni4E13" unicode="&#x4e13;" d="M160 292 q31 47 57.5 97.5 q26.5 50.5 49.5 104.5 l-161 0 l9 89 l186 0 q18 52 35 108 l-177 0 l10 89 l191 0 q12 49 23 102 l91 -8 q-10 -48 -21 -94 l290 0 l-9 -89 l-305 0 q-16 -55 -35 -108 l367 0 l-9 -89 l-391 0 q-23 -57 -49 -109 l293 0 q30 0 45 -14 q15 -14 16.5 -35 q1.5 -21 -10.5 -42 q-31 -54 -77 -115.5 q-46 -61.5 -103 -116.5 q27 -18 53.5 -37.5 q26.5 -19.5 51.5 -40.5 l-57 -74 q-82 68 -169.5 123 q-87.5 55 -155.5 89 l47 73 q37 -18 77 -40 q40 -22 82 -47 q49 49 87 98 q38 49 65 95 l-289 0 q-16 -27 -32 -53 l-76 44 Z" /><glyph glyph-name="uni4E14" unicode="&#x4e14;" d="M702 23 l-9 -87 l-640 0 l9 87 l91 0 l89 841 l365 0 q47 0 67 -24 q20 -24 16 -62 l-80 -755 l92 0 ZM306 586 l271 0 l19 189 l-271 0 l-19 -189 ZM277 313 l271 0 l20 188 l-271 0 l-20 -188 ZM246 23 l271 0 l22 205 l-271 0 l-22 -205 Z" /><glyph glyph-name="uni4E16" unicode="&#x4e16;" d="M673 -60 l-551 0 l68 635 l-80 0 l9 86 l80 0 l20 185 l91 0 l-20 -185 l98 0 l23 214 l88 0 l-23 -214 l112 0 l24 214 l86 0 l-23 -214 l103 0 l-9 -86 l-103 0 l-45 -412 l-285 0 l43 412 l-98 0 l-58 -547 l459 0 l-9 -88 ZM433 248 l109 0 l37 327 l-112 0 l-34 -327 Z" /><glyph glyph-name="uni4E18" unicode="&#x4e18;" d="M701 39 l-10 -92 l-652 0 l9 92 l91 0 l81 768 q117 6 235.5 25 q118.5 19 221.5 50 l23 -82 q-91 -26 -193.5 -44 q-102.5 -18 -203.5 -29 l-22 -203 l448 0 l-9 -84 l-137 0 l-42 -401 l160 0 ZM230 39 l220 0 l42 401 l-220 0 l-42 -401 Z" /><glyph glyph-name="uni4E19" unicode="&#x4e19;" d="M93 -80 l76 726 l238 0 l13 117 l-278 0 l10 90 l636 0 l-10 -90 l-271 0 l-12 -117 l164 0 q35 0 57 -19.5 q22 -19.5 18 -55.5 l-52 -507 q-7 -72 -42.5 -112.5 q-35.5 -40.5 -100.5 -41.5 q-56 -1 -91.5 34.5 q-35.5 35.5 -49.5 101.5 l81 24 q19 -71 56 -71 q47 0 55 73 l51 485 l-156 0 q-4 -30 -8.5 -59 q-4.5 -29 -10.5 -57 q37 -43 67.5 -92 q30.5 -49 58.5 -114 l-73 -56 q-21 46 -41.5 84.5 q-20.5 38.5 -43.5 71.5 q-25 -60 -69.5 -117.5 q-44.5 -57.5 -118.5 -113.5 l-39 55 l-24 -239 l-90 0 ZM248 557 l-38 -370 q71 58 107.5 116 q36.5 58 53 120 q16.5 62 25.5 134 l-148 0 Z" /><glyph glyph-name="uni4E1A" unicode="&#x4e1a;" d="M698 35 l-10 -92 l-634 0 l10 92 l192 0 l20 195 l-83 -23 q-21 130 -39 258.5 q-18 128.5 -30 243.5 l85 16 q9 -115 28 -233 q19 -118 40 -260 l69 656 l87 0 l-90 -853 l82 0 l90 853 l87 0 l-90 -853 l186 0 ZM771 712 q-24 -121 -57.5 -251.5 q-33.5 -130.5 -84.5 -260.5 l-77 35 q45 116 79.5 242.5 q34.5 126.5 56.5 248.5 l83 -14 Z" /><glyph glyph-name="uni4E1B" unicode="&#x4e1b;" d="M435 379 l-71 -35 q-12 39 -25 76.5 q-13 37.5 -29 75.5 q-20 -97 -46.5 -167.5 q-26.5 -70.5 -61.5 -128 q-35 -57.5 -81 -115.5 l-65 50 q41 50 72 100 q31 50 54 109.5 q23 59.5 40.5 136.5 q17.5 77 31.5 180 l29 213 l83 0 l-29 -217 q-3 -21 -6 -40 l1 0 q33 -64 57 -119 q24 -55 46 -119 ZM629 874 l-20 -158 q-5 -36 -9 -66 q5 -120 24.5 -216 q19.5 -96 48.5 -171.5 q29 -75.5 63 -136.5 l-80 -47 q-35 72 -63.5 157 q-28.5 85 -39.5 182 q-25 -85 -67.5 -164.5 q-42.5 -79.5 -113.5 -174.5 l-66 55 q47 63 80 116 q33 53 55.5 102.5 q22.5 49.5 37.5 102.5 q15 53 26 116.5 q11 63.5 21 144.5 l20 157 l83 1 ZM698 15 l-10 -92 l-634 0 l10 92 l634 0 Z" /><glyph glyph-name="uni4E1C" unicode="&#x4e1c;" d="M282 63 q7 -28 17 -45 q10 -17 29 -17 q11 0 19.5 5 q8.5 5 15 22.5 q6.5 17.5 9.5 54.5 l28 281 l-196 0 q-12 -15 -24 -31 l-72 54 q58 70 104.5 143.5 q46.5 73.5 84.5 153.5 l-159 0 l10 89 l188 0 q23 57 44 121 l85 -24 q-16 -50 -34 -97 l350 0 l-9 -89 l-378 0 q-28 -61 -59.5 -118.5 q-31.5 -57.5 -67.5 -112.5 l142 0 l14 135 l89 0 l-14 -135 l210 0 l-9 -89 l-209 0 l-30 -294 q-7 -73 -39 -112 q-32 -39 -89 -39 q-49 0 -82 32 q-33 32 -43 99 l75 13 ZM108 -29 l-70 57 q55 59 96 126 q41 67 75 139 l77 -37 q-33 -75 -75 -146.5 q-42 -71.5 -103 -138.5 ZM637 -41 q-33 75 -55 151 q-22 76 -39 149 l81 24 q20 -73 43.5 -146.5 q23.5 -73.5 51.5 -141.5 l-82 -36 Z" /><glyph glyph-name="uni4E1D" unicode="&#x4e1d;" d="M79 125 l-10 75 q18 2 37 4 q43 59 80 119 q37 60 69 117 q-41 -8 -81 -14.5 q-40 -6.5 -79 -11.5 l-8 76 q10 1 19 3 q51 91 98 191 q47 100 82 194 l78 -30 q-31 -82 -74 -170 q-43 -88 -90 -172 q25 4 49.5 8.5 q24.5 4.5 48.5 9.5 q19 38 35.5 74.5 q16.5 36.5 30.5 69.5 l78 -34 q-40 -91 -96.5 -199 q-56.5 -108 -129.5 -216 q41 6 82 14 q41 8 80 17 l15 -75 q-80 -19 -158.5 -31 q-78.5 -12 -155.5 -19 ZM420 122 l-11 77 q16 2 33 3 q42 60 77.5 120.5 q35.5 60.5 65.5 118.5 q-42 -8 -84 -14.5 q-42 -6.5 -83 -12.5 l-8 76 q12 2 22 3 q51 91 93.5 186.5 q42.5 95.5 77.5 189.5 l79 -30 q-63 -165 -156 -332 q25 4 50.5 9 q25.5 5 50.5 10 q15 33 29 63.5 q14 30.5 26 58.5 l78 -35 q-38 -86 -89 -189.5 q-51 -103.5 -118 -207.5 q40 6 78 13 q38 7 72 16 l16 -78 q-74 -15 -150.5 -26 q-76.5 -11 -148.5 -19 ZM712 27 l-10 -87 l-656 0 l10 87 l656 0 Z" /><glyph glyph-name="uni4E22" unicode="&#x4e22;" d="M616 -81 q-14 42 -40 97 q-115 -24 -234.5 -45.5 q-119.5 -21.5 -244.5 -41.5 l-10 81 q12 2 23.5 4 q11.5 2 23.5 4 q35 42 69 93 q34 51 62 102 q28 51 44 95 l-217 0 l9 85 l283 0 l14 138 l-215 0 l9 85 l215 0 l14 131 q-117 -13 -235 -17 l-9 90 q142 5 273 20.5 q131 15.5 257 39.5 l18 -84 q-100 -22 -214 -38 l-15 -142 l210 0 l-9 -85 l-210 0 l-15 -138 l270 0 l-9 -85 l-328 0 q-23 -64 -64.5 -136.5 q-41.5 -72.5 -90.5 -133.5 q74 13 146 26 q72 13 142 28 q-17 30 -34.5 59.5 q-17.5 29.5 -35.5 56.5 l75 42 q50 -70 91 -149 q41 -79 60 -143 l-78 -39 Z" /><glyph glyph-name="uni4E24" unicode="&#x4e24;" d="M87 -80 l79 717 l155 0 q3 31 6 63 q3 32 6 65 l-190 0 l8 88 l637 0 l-9 -88 l-201 0 q-3 -33 -5.5 -65 q-2.5 -32 -5.5 -63 l89 0 q35 0 57.5 -19.5 q22.5 -19.5 18.5 -55.5 l-54 -498 q-7 -72 -42 -112.5 q-35 -40.5 -94 -41.5 q-57 -1 -92 29.5 q-35 30.5 -55 91.5 l84 32 q13 -34 26 -48.5 q13 -14.5 33 -14.5 q23 0 34.5 19 q11.5 19 15.5 53 l14 131 l-45 -16 q-8 46 -16.5 86.5 q-8.5 40.5 -18.5 78.5 q-17 -68 -47.5 -131 q-30.5 -63 -81.5 -127 l-60 46 q48 59 78 117 l-41 -19 q-4 30 -9.5 57 q-5.5 27 -12.5 52 q-20 -62 -50.5 -121 q-30.5 -59 -75.5 -116 l-26 21 l-24 -211 l-85 0 ZM396 637 l99 0 q3 31 6 63 q3 32 6 65 l-99 0 q-3 -33 -5.5 -65 q-2.5 -32 -6.5 -63 ZM244 551 l-39 -340 q50 80 76.5 163 q26.5 83 36.5 177 l-74 0 ZM376 466 q32 -73 53 -172 q25 59 37 121 q12 62 19 136 l-98 0 q-4 -45 -11 -85 ZM546 484 q19 -47 35.5 -98 q16.5 -51 28.5 -108 l30 273 l-87 0 q-2 -17 -3.5 -33.5 q-1.5 -16.5 -3.5 -33.5 Z" /><glyph glyph-name="uni4E25" unicode="&#x4e25;" d="M754 483 l-9 -83 l-492 0 l-10 -90 q-13 -126 -40.5 -224.5 q-27.5 -98.5 -87.5 -176.5 l-75 43 q51 72 75 156.5 q24 84.5 37 202.5 l19 172 l159 0 l30 284 l-196 0 l9 85 l620 0 l-9 -85 l-178 0 l-30 -284 l178 0 ZM415 483 l76 0 l30 284 l-76 0 l-30 -284 ZM260 730 q5 -43 12.5 -90.5 q7.5 -47.5 17.5 -93.5 l-80 -18 q-11 44 -18.5 93 q-7.5 49 -10.5 92 l79 17 ZM695 722 l74 -25 q-11 -43 -29.5 -87.5 q-18.5 -44.5 -45.5 -88.5 l-73 29 q51 88 74 172 Z" /><glyph glyph-name="uni4E27" unicode="&#x4e27;" d="M118 -80 l-26 84 q42 10 84 22 l43 351 l-120 0 l9 85 l277 0 l26 241 l-237 0 l9 85 l237 0 l10 98 l88 0 l-10 -98 l240 0 l-9 -85 l-240 0 l-26 -241 l277 0 l-9 -85 l-294 0 q5 -36 18 -75 q13 -39 35 -77 q43 22 77.5 52.5 q34.5 30.5 60.5 63.5 l62 -55 q-64 -77 -153 -129 q35 -42 83 -75.5 q48 -33.5 110 -52.5 l-29 -81 q-88 22 -151.5 69 q-63.5 47 -106 108 q-42.5 61 -65.5 126.5 q-23 65.5 -28 125.5 l-54 0 l-40 -320 q37 14 73 29.5 q36 15.5 72 32.5 l36 -83 q-79 -40 -162.5 -68.5 q-83.5 -28.5 -166.5 -47.5 ZM589 477 l-65 32 q29 41 51 89 q22 48 35 86 l70 -27 q-16 -49 -41 -98.5 q-25 -49.5 -50 -81.5 ZM225 658 l72 19 q17 -94 53 -166 l-71 -26 q-17 35 -31 81 q-14 46 -23 92 Z" /><glyph glyph-name="uni4E2A" unicode="&#x4e2a;" d="M106 425 l-46 79 q128 69 221 167.5 q93 98.5 154 225.5 l85 -40 q-14 -28 -30 -55 q33 -64 81.5 -120 q48.5 -56 106 -101 q57.5 -45 116.5 -76 l-47 -83 q-90 48 -170 126.5 q-80 78.5 -135 177.5 q-67 -96 -152.5 -172.5 q-85.5 -76.5 -183.5 -128.5 ZM308 -80 l64 605 l94 0 l-64 -605 l-94 0 Z" /><glyph glyph-name="uni4E2B" unicode="&#x4e2b;" d="M311 522 q-43 88 -89.5 166 q-46.5 78 -102.5 151 l74 51 q54 -70 101.5 -148 q47.5 -78 95.5 -173 l-79 -47 ZM339 -80 l59 583 q70 67 126 127.5 q56 60.5 104 123.5 q48 63 92 134 l80 -45 q-41 -68 -87 -129 q-46 -61 -101.5 -120.5 q-55.5 -59.5 -123.5 -123.5 l-55 -550 l-94 0 Z" /><glyph glyph-name="uni4E2D" unicode="&#x4e2d;" d="M319 -80 l39 368 l-242 0 l45 424 l241 0 l19 176 l88 0 l-19 -176 l172 0 q44 0 61.5 -22.5 q17.5 -22.5 13.5 -58.5 l-37 -343 l-254 0 l-39 -368 l-88 0 ZM212 374 l155 0 l26 252 l-155 0 l-26 -252 ZM455 374 l167 0 l28 252 l-169 0 l-26 -252 Z" /><glyph glyph-name="uni4E30" unicode="&#x4e30;" d="M321 -80 l24 227 l-257 0 l10 91 l257 0 l18 179 l-218 0 l10 91 l218 0 l17 159 l-251 0 l10 91 l250 0 l14 130 l92 0 l-14 -130 l266 0 l-10 -91 l-265 0 l-17 -159 l233 0 l-10 -91 l-233 0 l-18 -179 l269 0 l-10 -91 l-269 0 l-24 -227 l-92 0 Z" /><glyph glyph-name="uni4E32" unicode="&#x4e32;" d="M88 116 l31 289 l256 0 l9 100 l-229 0 l29 282 l228 0 l10 101 l90 0 l-10 -101 l151 0 q40 0 59 -22 q19 -22 15 -57 l-20 -203 l-233 0 l-9 -100 l183 0 q41 0 60 -22.5 q19 -22.5 15 -59.5 l-22 -207 l-265 0 l-19 -196 l-90 0 l19 196 l-258 0 ZM249 589 l144 0 l11 118 l-144 0 l-11 -118 ZM483 589 l145 0 l13 118 l-147 0 l-11 -118 ZM185 202 l170 0 l12 121 l-169 0 l-13 -121 ZM445 202 l174 0 l13 121 l-175 0 l-12 -121 Z" /><glyph glyph-name="uni4E34" unicode="&#x4e34;" d="M175 -80 l102 968 l86 0 l-102 -968 l-86 0 ZM343 492 q44 71 69 134 q25 63 40.5 126.5 q15.5 63.5 27.5 132.5 l81 -14 q-4 -23 -8 -46 q-4 -23 -9 -45 l237 0 l-8 -87 l-251 0 q-18 -61 -45 -122.5 q-27 -61.5 -67 -126.5 l-67 48 ZM70 128 l65 620 l80 0 l-65 -620 l-80 0 ZM698 485 l-75 -38 q-11 32 -29 70 q-18 38 -36 72 q-18 34 -30 51 q19 10 36.5 19.5 q17.5 9.5 34.5 19.5 q14 -21 32.5 -56 q18.5 -35 36.5 -72 q18 -37 30 -66 ZM725 340 l-43 -398 l-365 0 l50 477 l285 0 q44 0 60.5 -22 q16.5 -22 12.5 -57 ZM410 27 l57 0 l32 307 l-57 0 l-32 -307 ZM541 27 l65 0 l34 307 l-67 0 l-32 -307 Z" /><glyph glyph-name="uni4E38" unicode="&#x4e38;" d="M98 -88 l-61 72 q82 84 137.5 171.5 q55.5 87.5 90.5 188.5 q-47 40 -109 84 l45 63 q49 -33 89 -65 q13 46 22 96 q9 50 16 105 l-191 0 l10 92 l191 0 l18 165 l88 0 l-18 -165 l141 0 q44 0 65.5 -21 q21.5 -21 12.5 -66 q-13 -63 -24 -138 q-11 -75 -19 -151 q-8 -76 -12.5 -141.5 q-4.5 -65.5 -3.5 -108.5 q0 -40 7.5 -57.5 q7.5 -17.5 24.5 -17.5 q19 0 31.5 41 q12.5 41 22.5 132 l85 -11 q-11 -132 -42 -197.5 q-31 -65.5 -99 -65.5 q-58 0 -88.5 43 q-30.5 43 -32.5 113 q-2 51 2 119.5 q4 68.5 12.5 144.5 q8.5 76 19.5 151 q11 75 23 139 l-137 0 q-8 -71 -21.5 -136.5 q-13.5 -65.5 -31.5 -125.5 q53 -51 105 -112 l-54 -57 q-42 48 -80 86 q-77 -198 -235 -370 Z" /><glyph glyph-name="uni4E39" unicode="&#x4e39;" d="M408 107 q15 -98 66 -98 q28 0 44.5 24.5 q16.5 24.5 21.5 77.5 l27 254 l-269 0 q-26 -148 -64.5 -257 q-38.5 -109 -94.5 -189 l-74 51 q50 76 84 169 q34 93 59 226 l-119 0 l10 88 l123 0 q12 80 22 178 l24 226 l352 0 q50 0 67.5 -29 q17.5 -29 12.5 -74 l-1 -11 l0 0 l-30 -290 l86 0 l-10 -88 l-86 0 l-27 -262 q-9 -81 -45 -132.5 q-36 -51.5 -107 -51.5 q-68 0 -106.5 45.5 q-38.5 45.5 -49.5 124.5 l84 18 ZM335 630 q-5 -47 -10.5 -91.5 q-5.5 -44.5 -11.5 -85.5 l263 0 l33 313 l-260 0 l-14 -136 ZM463 513 q-30 87 -82 168 l73 40 q52 -85 83 -168 l-74 -40 Z" /><glyph glyph-name="uni4E3A" unicode="&#x4e3a;" d="M129 -88 l-65 68 q83 84 137 161.5 q54 77.5 87.5 151 q33.5 73.5 52 146 q18.5 72.5 28.5 148.5 l-196 0 l9 86 l198 0 l25 211 l91 0 l-24 -211 l187 0 q43 0 67 -24 q24 -24 19 -61 l-61 -491 q-10 -76 -51 -127 q-41 -51 -117 -51 q-66 0 -106.5 38.5 q-40.5 38.5 -57.5 101.5 l78 35 q11 -37 33.5 -57.5 q22.5 -20.5 47.5 -20.5 q29 0 50.5 21 q21.5 21 28.5 72 l64 478 l-193 0 q-12 -86 -33.5 -169.5 q-21.5 -83.5 -58.5 -166.5 q-37 -83 -95.5 -167 q-58.5 -84 -144.5 -172 ZM286 696 q-14 37 -34.5 73 q-20.5 36 -42.5 69 l73 43 q23 -36 43.5 -72.5 q20.5 -36.5 34.5 -71.5 l-74 -41 ZM522 234 q-16 45 -38.5 89 q-22.5 44 -48.5 84 l75 40 q57 -90 88 -174 l-76 -39 Z" /><glyph glyph-name="uni4E3B" unicode="&#x4e3b;" d="M694 29 l-9 -87 l-620 0 l9 87 l267 0 l30 285 l-209 0 l9 87 l209 0 l26 252 l-239 0 l9 87 l239 0 q-7 30 -16.5 59.5 q-9.5 29.5 -21.5 58.5 l88 30 q14 -31 25.5 -66 q11.5 -35 18.5 -67 l-49 -15 l285 0 l-9 -87 l-239 0 l-26 -252 l208 0 l-9 -87 l-208 0 l-30 -285 l262 0 Z" /><glyph glyph-name="uni4E3D" unicode="&#x4e3d;" d="M799 856 l-9 -86 l-661 0 l9 86 l661 0 ZM76 -80 l83 761 l193 0 q36 0 56 -20 q20 -20 16 -57 l-58 -558 q-7 -73 -32 -101 q-25 -28 -59 -28 q-31 0 -55 25.5 q-24 25.5 -29 95.5 l58 12 q4 -34 10.5 -45 q6.5 -11 13.5 -10 q8 2 10.5 15 q2.5 13 3.5 31 l19 193 l-62 -25 q-5 55 -14 110 q-9 55 -19 99 l-52 -498 l-83 0 ZM395 -80 l78 761 l200 0 q36 0 56 -20 q20 -20 16 -57 l-60 -558 q-7 -73 -32.5 -101 q-25.5 -28 -59.5 -28 q-20 0 -38.5 10.5 q-18.5 10.5 -31 37.5 q-12.5 27 -16.5 76 l59 12 q4 -34 10.5 -47.5 q6.5 -13.5 13.5 -12.5 q8 1 11 15.5 q3 14.5 5 32.5 l20 189 l-60 -21 q-6 58 -16.5 116 q-10.5 58 -22.5 103 l-52 -508 l-80 0 ZM585 483 q28 -91 45 -212 l34 327 l-120 0 l-13 -133 l54 18 ZM264 485 q14 -50 25 -111.5 q11 -61.5 19 -127.5 l35 352 l-113 0 l-14 -131 l48 18 Z" /><glyph glyph-name="uni4E3E" unicode="&#x4e3e;" d="M515 746 l-79 -26 q-10 38 -22.5 75 q-12.5 37 -27.5 71 l78 27 q16 -34 28.5 -71.5 q12.5 -37.5 22.5 -75.5 ZM770 685 l-9 -82 l-169 0 q23 -54 72.5 -103.5 q49.5 -49.5 104.5 -86.5 l-53 -75 q-75 51 -129.5 119 q-54.5 68 -82.5 146 l-121 0 q-43 -80 -113 -149 q-70 -69 -149 -116 l-48 76 q68 36 124 85.5 q56 49.5 91 103.5 l-163 0 l8 82 l402 0 q39 46 69 94 q30 48 55 101 l77 -31 q-23 -43 -49 -84 q-26 -41 -57 -80 l140 0 ZM336 735 l-77 -31 q-13 38 -29 73.5 q-16 35.5 -34 68.5 l76 32 q18 -32 34.5 -68.5 q16.5 -36.5 29.5 -74.5 ZM330 -86 l18 175 l-271 0 l9 86 l271 0 l12 121 l-160 0 l10 83 l159 0 l15 151 l92 0 l-15 -151 l160 0 l-9 -83 l-160 0 l-12 -121 l262 0 l-9 -86 l-262 0 l-18 -175 l-92 0 Z" /><glyph glyph-name="uni4E43" unicode="&#x4e43;" d="M95 -82 l-74 52 q71 93 115.5 179 q44.5 86 70 165.5 q25.5 79.5 40 151.5 q14.5 72 24.5 136 l26 154 l-144 0 l10 92 l408 0 q54 0 69.5 -27.5 q15.5 -27.5 1.5 -74.5 l-56 -187 l71 0 q43 0 63 -24 q20 -24 15 -61 l-47 -377 q-10 -76 -49.5 -127 q-39.5 -51 -113.5 -51 q-70 0 -108.5 44 q-38.5 44 -48.5 118 l81 18 q7 -48 25.5 -69.5 q18.5 -21.5 45.5 -21.5 q32 0 52 25.5 q20 25.5 27 81.5 l44 354 l-177 0 l83 287 l-160 0 l-26 -156 q-12 -73 -29 -153 q-17 -80 -45.5 -166.5 q-28.5 -86.5 -75 -177.5 q-46.5 -91 -118.5 -185 Z" /><glyph glyph-name="uni4E45" unicode="&#x4e45;" d="M111 -85 l-67 74 q146 104 244 215.5 q98 111.5 157.5 236.5 q59.5 125 88.5 269 l-166 1 q-24 -86 -58 -163.5 q-34 -77.5 -82 -157.5 l-80 49 q68 110 111 224 q43 114 62 233 l86 -14 q-8 -43 -17 -82 l178 -1 q36 0 51.5 -28 q15.5 -28 6.5 -69 q-39 -183 -113 -331 q35 -111 94.5 -211 q59.5 -100 122.5 -179 l-76 -64 q-63 78 -114 167 q-51 89 -87 182 q-65 -100 -150 -187 q-85 -87 -192 -164 Z" /><glyph glyph-name="uni4E48" unicode="&#x4e48;" d="M84 410 q90 110 157 231.5 q67 121.5 118 258.5 l89 -28 q-54 -143 -124.5 -272.5 q-70.5 -129.5 -170.5 -254.5 l-69 65 ZM632 -72 q-8 49 -23 111 q-121 -24 -248.5 -44.5 q-127.5 -20.5 -260.5 -39.5 l-12 95 q33 4 66 8 q124 146 218 312.5 q94 166.5 173 361.5 l92 -36 q-66 -165 -152 -319 q-86 -154 -204 -302 q155 23 303 51 q-12 40 -26 80.5 q-14 40.5 -30 77.5 l84 33 q27 -59 48.5 -123 q21.5 -64 37.5 -124.5 q16 -60.5 23 -111.5 l-89 -30 Z" /><glyph glyph-name="uni4E49" unicode="&#x4e49;" d="M494 642 l-81 -24 q-11 63 -26.5 124.5 q-15.5 61.5 -34.5 113.5 l82 26 q20 -52 36 -115 q16 -63 24 -125 ZM64 -88 l-42 85 q106 59 186.5 120 q80.5 61 141.5 125 q-79 120 -118.5 244 q-39.5 124 -63.5 254 l90 22 q21 -116 55.5 -226 q34.5 -110 103.5 -217 q81 104 129.5 218 q48.5 114 85.5 240 l92 -27 q-44 -144 -101 -271.5 q-57 -127.5 -148 -239.5 q49 -62 115 -123.5 q66 -61.5 153 -122.5 l-54 -84 q-90 63 -159 126.5 q-69 63.5 -122 128.5 q-66 -68 -150.5 -130.5 q-84.5 -62.5 -193.5 -121.5 Z" /><glyph glyph-name="uni4E4B" unicode="&#x4e4b;" d="M406 721 q-13 38 -29.5 73 q-16.5 35 -35.5 66 l80 35 q19 -31 36 -66.5 q17 -35.5 30 -75.5 l-81 -32 ZM504 29 q44 0 85 7.5 q41 7.5 92 24.5 l20 -87 q-90 -34 -182 -34 q-102 0 -182.5 33.5 q-80.5 33.5 -143.5 120.5 q-28 -47 -60 -83.5 q-32 -36.5 -77 -72.5 l-56 70 q45 38 82 79 q37 41 79 108 q11 17 25 18 q14 1 26 -15 q13 -17 24 -31 q105 105 188 213.5 q83 108.5 159 233.5 l-441 1 l9 87 l473 -1 q27 0 46.5 -13 q19.5 -13 24 -37 q4.5 -24 -15.5 -57 q-77 -128 -169.5 -252.5 q-92.5 -124.5 -209.5 -242.5 q47 -42 93.5 -56 q46.5 -14 110.5 -14 Z" /><glyph glyph-name="uni4E4C" unicode="&#x4e4c;" d="M185 321 l51 462 l145 0 q24 53 40 105 l86 -18 q-13 -43 -32 -87 l155 0 q38 0 57.5 -21 q19.5 -21 14.5 -54 l-14 -93 q-9 -61 -24 -94.5 q-15 -33.5 -45 -47 q-30 -13.5 -86 -13.5 l-51 0 l-2 81 l32 0 q34 0 50.5 6 q16.5 6 23.5 24.5 q7 18.5 12 55.5 l11 75 l-294 0 l-33 -297 l363 0 q42 0 66 -19.5 q24 -19.5 19 -62.5 l-21 -200 q-11 -110 -66.5 -160 q-55.5 -50 -133.5 -50 q-68 0 -116.5 37.5 q-48.5 37.5 -65.5 122.5 l92 21 q9 -44 34.5 -67 q25.5 -23 58.5 -23 q26 0 47.5 10.5 q21.5 10.5 36 38.5 q14.5 28 20.5 79 l22 189 l-453 0 ZM587 239 l-8 -85 l-507 0 l8 85 l507 0 Z" /><glyph glyph-name="uni4E4D" unicode="&#x4e4d;" d="M274 -81 l79 748 l-65 0 q-50 -97 -121 -186 l-78 56 q65 77 113 164 q48 87 76 189 l89 -26 q-16 -56 -38 -109 l437 0 l-10 -88 l-313 0 l-18 -165 l266 0 l-10 -88 l-265 0 l-18 -167 l297 0 l-10 -88 l-296 0 l-25 -240 l-90 0 Z" /><glyph glyph-name="uni4E4E" unicode="&#x4e4e;" d="M220 96 q12 -37 29 -61 q17 -24 44 -24 q55 0 65 103 l22 217 l-288 0 l9 88 l287 0 l32 321 q-61 -6 -123 -10 q-62 -4 -124 -7 l-7 91 q153 7 293 22 q140 15 276 42 l17 -86 q-56 -13 -116 -23 q-60 -10 -123 -18 l-32 -332 l266 0 l-10 -88 l-265 0 l-22 -225 q-8 -81 -46 -134 q-38 -53 -114 -53 q-54 0 -96 39.5 q-42 39.5 -56 106.5 l82 31 ZM612 449 l-74 38 q35 50 62 103.5 q27 53.5 46 108.5 l80 -25 q-37 -109 -114 -225 ZM187 669 l81 22 q15 -55 31 -110 q16 -55 33 -102 l-82 -28 q-19 56 -34.5 113 q-15.5 57 -28.5 105 Z" /><glyph glyph-name="uni4E4F" unicode="&#x4e4f;" d="M745 880 l15 -85 q-134 -25 -289.5 -40.5 q-155.5 -15.5 -314.5 -18.5 l-6 90 q158 3 306 17 q148 14 289 37 ZM727 -23 q-47 -28 -97.5 -42 q-50.5 -14 -116.5 -14 q-93 0 -168 42 q-75 42 -129 104 q-35 -47 -66.5 -80 q-31.5 -33 -70.5 -64 l-58 71 q27 20 54 45.5 q27 25.5 58.5 63 q31.5 37.5 74.5 92.5 q20 -22 37 -41 q113 75 196 160.5 q83 85.5 152 185.5 l-445 1 l9 88 l235 0 l12 113 l92 0 l-12 -114 l148 0 q28 0 46 -14.5 q18 -14.5 22.5 -37 q4.5 -22.5 -11.5 -46.5 q-51 -79 -106.5 -147.5 q-55.5 -68.5 -122.5 -130 q-67 -61.5 -151 -119.5 q49 -42 100 -63.5 q51 -21.5 114 -21.5 q53 0 92 11 q39 11 82 36 l30 -78 Z" /><glyph glyph-name="uni4E50" unicode="&#x4e50;" d="M267 52 q13 -47 40 -47 q18 0 29.5 16 q11.5 16 15.5 62 l33 310 l-251 0 l89 422 l37 0 q126 8 241.5 27 q115.5 19 229.5 47 l21 -84 q-102 -30 -219 -49.5 q-117 -19.5 -238 -28.5 l-52 -245 l151 0 l20 189 l89 0 l-20 -189 l235 0 l-9 -89 l-235 0 l-34 -323 q-7 -73 -36.5 -112 q-29.5 -39 -86.5 -39 q-46 0 -79.5 28.5 q-33.5 28.5 -46.5 88.5 l76 16 ZM117 -28 l-75 54 q52 70 88.5 145.5 q36.5 75.5 64.5 155.5 l81 -32 q-27 -83 -64 -163.5 q-37 -80.5 -95 -159.5 ZM617 320 q23 -89 45.5 -165.5 q22.5 -76.5 47.5 -140.5 l-83 -36 q-28 81 -51 160 q-23 79 -43 158 l84 24 Z" /><glyph glyph-name="uni4E52" unicode="&#x4e52;" d="M746 299 l-10 -91 l-667 0 l10 91 l107 0 l56 528 l2 0 q120 8 227 27.5 q107 19.5 214 47.5 l23 -88 q-86 -27 -184.5 -46.5 q-98.5 -19.5 -201.5 -29.5 l-14 -136 l419 0 l-10 -90 l-108 0 l-22 -213 l159 0 ZM276 299 l221 0 l22 213 l-221 0 l-22 -213 ZM103 -76 l-47 83 q69 36 130.5 78 q61.5 42 119.5 98 l62 -68 q-56 -58 -121.5 -103.5 q-65.5 -45.5 -143.5 -87.5 Z" /><glyph glyph-name="uni4E53" unicode="&#x4e53;" d="M746 299 l-10 -91 l-667 0 l10 91 l107 0 l56 528 l2 0 q120 8 227 27.5 q107 19.5 214 47.5 l23 -88 q-86 -27 -184.5 -46.5 q-98.5 -19.5 -201.5 -29.5 l-14 -136 l419 0 l-10 -90 l-108 0 l-22 -213 l159 0 ZM276 299 l221 0 l22 213 l-221 0 l-22 -213 ZM682 -76 q-67 40 -127 84.5 q-60 44.5 -111 94.5 l62 69 q48 -46 104 -88 q56 -42 120 -79 l-48 -81 Z" /><glyph glyph-name="uni4E54" unicode="&#x4e54;" d="M97 -80 l-53 76 q51 28 95 71.5 q44 43.5 74 106.5 q30 63 38 147 l3 27 q-28 -25 -58.5 -49 q-30.5 -24 -64.5 -48 l-52 74 q67 47 123.5 100 q56.5 53 100.5 117 l-179 0 l10 89 l219 0 q27 57 42 121 q-100 -9 -200 -12 l-9 84 q141 5 273 19.5 q132 14.5 257 36.5 l18 -79 q-116 -24 -248 -39 q-14 -71 -36 -131 l313 0 l-10 -89 l-188 0 q14 -51 44.5 -96 q30.5 -45 68.5 -80 q38 -35 76 -56 l-50 -75 q-36 20 -68.5 50.5 q-32.5 30.5 -60.5 66.5 l-46 -433 l-90 0 l50 476 l56 0 q-21 34 -37 71.5 q-16 37.5 -25 75.5 l-73 0 q-23 -41 -50 -77.5 q-27 -36.5 -58 -69.5 l45 0 l-7 -77 q-8 -87 -39 -164.5 q-31 -77.5 -82.5 -137.5 q-51.5 -60 -121.5 -96 Z" /><glyph glyph-name="uni4E56" unicode="&#x4e56;" d="M336 -80 l72 681 l-294 0 l8 79 l294 0 l9 87 q-62 -5 -124.5 -7.5 q-62.5 -2.5 -123.5 -4.5 l-8 85 q149 2 295.5 13 q146.5 11 276.5 30 l25 -79 q-60 -9 -123.5 -16.5 q-63.5 -7.5 -129.5 -13.5 l-10 -94 l275 0 l-8 -79 l-275 0 l-72 -681 l-87 0 ZM203 78 l13 118 q-63 -44 -134 -83 l-29 83 q94 41 173 94 l8 80 l-138 0 l8 81 l139 0 l9 88 l80 0 l-48 -461 l-81 0 ZM766 261 q-6 -45 -22 -87.5 q-16 -42.5 -45.5 -69.5 q-29.5 -27 -78.5 -27 q-41 1 -66 22 q-25 21 -34 56.5 q-9 35.5 -5 77.5 l32 306 l81 0 l-17 -163 q33 22 62.5 48.5 q29.5 26.5 56.5 57.5 l38 -70 q-36 -39 -77 -71 q-41 -32 -90 -58 l-5 -46 q-4 -32 2.5 -53 q6.5 -21 28.5 -21 q26 0 40 32.5 q14 32.5 20 74.5 l79 -9 Z" /><glyph glyph-name="uni4E58" unicode="&#x4e58;" d="M323 -80 l27 257 q-54 -80 -126.5 -143.5 q-72.5 -63.5 -159.5 -103.5 l-43 80 q106 48 196.5 131.5 q90.5 83.5 148.5 189.5 l31 295 l-281 0 l9 82 l281 0 l7 69 q-56 -4 -113.5 -6 q-57.5 -2 -113.5 -4 l-9 81 q141 3 281.5 12 q140.5 9 264.5 23 l13 -76 q-55 -7 -115 -13 q-60 -6 -122 -11 l-8 -75 l290 0 l-9 -82 l-290 0 l-31 -300 q44 -110 118.5 -190 q74.5 -80 171.5 -121 l-51 -78 q-78 39 -145.5 103 q-67.5 64 -108.5 144 l-28 -264 l-85 0 ZM220 263 l6 53 q-57 -33 -116 -59 l-22 85 q78 26 147 63 l5 45 l-126 0 l8 81 l127 0 l5 51 l80 0 l-33 -319 l-81 0 ZM756 377 q-7 -40 -23.5 -76 q-16.5 -36 -45 -58 q-28.5 -22 -72.5 -22 q-41 1 -66 22 q-25 21 -34 56.5 q-9 35.5 -5 77.5 l21 205 l81 0 l-9 -88 q31 17 58 37.5 q27 20.5 52 44.5 l43 -62 q-35 -31 -74.5 -56.5 q-39.5 -25.5 -87.5 -45.5 l-3 -31 q-3 -32 3 -53 q6 -21 28 -21 q23 0 36 24.5 q13 24.5 20 58.5 l78 -13 Z" /><glyph glyph-name="uni4E59" unicode="&#x4e59;" d="M651 700 l-261 -271 q-66 -69 -104.5 -123.5 q-38.5 -54.5 -55 -99 q-16.5 -44.5 -16.5 -84.5 q0 -66 38 -93 q38 -27 108 -27 q84 0 139.5 35.5 q55.5 35.5 90.5 97.5 q35 62 56 140 l88 -25 q-16 -68 -43.5 -129.5 q-27.5 -61.5 -72 -109 q-44.5 -47.5 -110.5 -74.5 q-66 -27 -158 -27 q-85 0 -138 26.5 q-53 26.5 -77 71 q-24 44.5 -24 98.5 q0 59 19 116 q19 57 66 124 q47 67 130 154 l212 224 l-396 0 l11 92 l463 0 q25 0 44 -15.5 q19 -15.5 20.5 -42 q1.5 -26.5 -29.5 -58.5 Z" /><glyph glyph-name="uni4E5D" unicode="&#x4e5d;" d="M103 -88 l-66 72 q70 72 116 140.5 q46 68.5 74.5 141 q28.5 72.5 45.5 153.5 q17 81 30 177 l-160 0 l8 94 l163 0 l23 194 l93 0 l-22 -194 l148 0 q44 0 65.5 -21 q21.5 -21 12.5 -66 q-13 -64 -23.5 -135 q-10.5 -71 -18.5 -140.5 q-8 -69.5 -11.5 -130 q-3.5 -60.5 -3.5 -104.5 q1 -40 9 -57.5 q8 -17.5 27 -17.5 q21 0 34 41 q13 41 23 132 l85 -11 q-11 -132 -42 -197.5 q-31 -65.5 -102 -65.5 q-61 0 -93.5 43 q-32.5 43 -34.5 113 q-2 52 2 116 q4 64 11.5 134 q7.5 70 18 140 q10.5 70 22.5 133 l-140 0 q-14 -107 -35 -199.5 q-21 -92.5 -53.5 -174.5 q-32.5 -82 -83 -158.5 q-50.5 -76.5 -122.5 -151.5 Z" /><glyph glyph-name="uni4E5E" unicode="&#x4e5e;" d="M85 555 q62 68 112 153.5 q50 85.5 80 177.5 l91 -27 q-15 -46 -36 -92 l449 0 l-10 -90 l-484 0 q-58 -103 -134 -188 l-68 66 ZM653 454 l-294 -212 q-59 -43 -96 -82 q-37 -39 -37 -77 q0 -43 36 -58.5 q36 -15.5 118 -15.5 q81 0 132.5 24.5 q51.5 24.5 80.5 68 q29 43.5 42 99.5 l90 -14 q-10 -49 -33.5 -97 q-23.5 -48 -65 -87 q-41.5 -39 -104.5 -62 q-63 -23 -153 -23 q-240 0 -240 152 q0 65 37.5 114.5 q37.5 49.5 101.5 96.5 l262 192 l-285 0 l10 90 l383 0 q25 0 40.5 -17 q15.5 -17 12 -42 q-3.5 -25 -37.5 -50 Z" /><glyph glyph-name="uni4E5F" unicode="&#x4e5f;" d="M370 147 l45 431 l-138 -30 l-36 -341 q-8 -82 9 -125.5 q17 -43.5 56.5 -59.5 q39.5 -16 95.5 -16 q108 0 170.5 52 q62.5 52 87.5 143 l84 -16 q-27 -125 -114 -196 q-87 -71 -236 -71 q-55 0 -103 12.5 q-48 12.5 -82.5 44 q-34.5 31.5 -50.5 86.5 q-16 55 -7 140 l34 327 l-87 -19 l-2 88 l99 22 l19 181 l90 0 l-17 -161 l138 30 l23 219 l84 0 l-21 -200 l134 29 q38 8 61.5 -15.5 q23.5 -23.5 18.5 -60.5 l-32 -260 q-7 -64 -36.5 -91.5 q-29.5 -27.5 -87.5 -27.5 l-38 0 l-2 87 l31 0 q24 0 33 11.5 q9 11.5 12 37.5 l29 227 l-133 -29 l-47 -449 l-84 0 Z" /><glyph glyph-name="uni4E60" unicode="&#x4e60;" d="M383 104 q8 -49 28 -70.5 q20 -21.5 51 -21.5 q38 0 59 26.5 q21 26.5 27 71.5 l90 645 l-469 0 l10 90 l470 0 q48 0 67 -25.5 q19 -25.5 14 -65.5 l-90 -653 q-6 -48 -27 -88.5 q-21 -40.5 -57.5 -65 q-36.5 -24.5 -90.5 -24.5 q-75 0 -117 44.5 q-42 44.5 -53 114.5 l88 22 ZM382 468 q-41 44 -91.5 86.5 q-50.5 42.5 -98.5 73.5 l54 72 q53 -36 105 -79 q52 -43 93 -87 l-62 -66 ZM124 102 l-44 80 q104 50 204.5 110.5 q100.5 60.5 194.5 131.5 l46 -76 q-95 -68 -195.5 -130.5 q-100.5 -62.5 -205.5 -115.5 Z" /><glyph glyph-name="uni4E61" unicode="&#x4e61;" d="M65 9 q133 27 253 92.5 q120 65.5 207 183.5 q-100 -15 -205.5 -28 q-105.5 -13 -207.5 -25 l-9 86 q45 4 89 9 q134 97 238 221 q-74 -10 -145 -17.5 q-71 -7.5 -143 -14.5 l-9 85 q34 3 64 5 q56 64 102 136.5 q46 72.5 79 147.5 l84 -38 q-30 -60 -67 -119.5 q-37 -59.5 -82 -114.5 q46 4 92.5 9.5 q46.5 5.5 94.5 12.5 q57 81 100 169 l82 -36 q-59 -120 -145.5 -232 q-86.5 -112 -187.5 -197 q59 7 117.5 15 q58.5 8 113.5 16 q21 39 37.5 83.5 q16.5 44.5 28.5 93.5 l86 -22 q-35 -141 -98.5 -247 q-63.5 -106 -148.5 -180.5 q-85 -74.5 -186.5 -120 q-101.5 -45.5 -213.5 -66.5 l-20 93 Z" /><glyph glyph-name="uni4E66" unicode="&#x4e66;" d="M798 716 l-66 -56 q-31 52 -70 99.5 q-39 47.5 -70 76.5 l63 55 q35 -34 72 -78.5 q37 -44.5 71 -96.5 ZM278 -80 l46 432 l-234 0 l9 83 l233 0 l22 206 l-192 0 l9 90 l192 0 l17 157 l88 0 l-17 -157 l140 0 q43 0 64 -25 q21 -25 14 -63 l-36 -208 l37 0 q36 0 54.5 -20 q18.5 -20 13.5 -57 l-23 -172 q-8 -64 -30 -99.5 q-22 -35.5 -52 -49.5 q-30 -14 -64 -14 q-49 0 -85.5 33.5 q-36.5 33.5 -47.5 94.5 l73 19 q9 -35 23 -49 q14 -14 36 -14 q24 0 39 22.5 q15 22.5 23 86.5 l18 136 l-236 0 l-46 -432 l-88 0 ZM420 435 l125 0 l34 206 l-137 0 l-22 -206 Z" /><glyph glyph-name="uni4E70" unicode="&#x4e70;" d="M615 622 q18 35 32.5 71 q14.5 36 25.5 72 l-509 0 l9 91 l522 0 q98 0 75 -92 q-20 -81 -68 -175 l-87 33 ZM358 537 q-72 74 -152 127 l48 65 q41 -27 81 -60 q40 -33 74 -68 l-51 -64 ZM66 -89 l-39 85 q125 55 204 123.5 q79 68.5 123 151.5 l-260 0 l9 89 l287 0 q16 55 23 119 l25 248 l93 0 l-25 -251 q-3 -30 -8 -59 q-5 -29 -12 -57 l263 0 l-9 -89 l-283 0 q-8 -19 -16 -37 q74 -53 144.5 -112.5 q70.5 -59.5 135.5 -129.5 l-65 -73 q-66 70 -129.5 129 q-63.5 59 -132.5 109 q-51 -72 -131 -134 q-80 -62 -197 -112 ZM275 401 q-39 38 -78.5 70 q-39.5 32 -70.5 53 l47 63 q38 -23 77.5 -56 q39.5 -33 78.5 -71 l-54 -59 Z" /><glyph glyph-name="uni4E71" unicode="&#x4e71;" d="M674 166 l79 -16 q-10 -84 -30 -134 q-20 -50 -54 -72 q-34 -22 -87 -22 q-60 0 -91.5 54 q-31.5 54 -20.5 157 l82 755 l86 0 l-81 -745 q-6 -53 -2 -80 q4 -27 15 -36.5 q11 -9.5 24 -9.5 q35 0 52 31.5 q17 31.5 28 117.5 ZM168 -78 l-85 0 l48 453 l99 0 l15 141 l-140 0 l9 86 l141 0 l14 139 q-52 -11 -103 -18 l-19 80 q79 11 159 30.5 q80 19.5 150 44.5 l26 -75 q-56 -22 -122 -40 l-17 -161 l128 0 l-9 -86 l-129 0 l-15 -141 l41 0 q44 0 60.5 -22 q16.5 -22 12.5 -57 l-33 -308 l-224 0 l-7 -66 ZM184 71 l139 0 l24 221 l-140 0 l-23 -221 Z" /><glyph glyph-name="uni4E73" unicode="&#x4e73;" d="M662 167 l81 -14 q-25 -127 -63.5 -181 q-38.5 -54 -100.5 -54 q-60 0 -92 47 q-32 47 -20 162 l82 762 l90 0 l-81 -756 q-7 -64 -0.5 -92.5 q6.5 -28.5 28.5 -28.5 q21 0 39 33.5 q18 33.5 37 121.5 ZM492 882 l17 -86 q-83 -21 -182 -37.5 q-99 -16.5 -199 -26.5 l-8 92 q100 8 191.5 22.5 q91.5 14.5 180.5 35.5 ZM425 535 l-73 32 q24 35 41.5 76.5 q17.5 41.5 33.5 103.5 l75 -23 q-17 -64 -35 -107.5 q-18 -43.5 -42 -81.5 ZM357 600 l-76 -15 q-4 32 -11 64.5 q-7 32.5 -17 65.5 l76 15 q10 -32 17 -64.5 q7 -32.5 11 -65.5 ZM245 572 l-77 -21 q-5 35 -13 68.5 q-8 33.5 -19 66.5 l75 18 q11 -34 19.5 -67 q8.5 -33 14.5 -65 ZM87 178 l-8 88 q42 3 83.5 7 q41.5 4 81.5 9 l5 72 l93 95 l-217 0 l9 84 l253 0 q37 0 52 -15.5 q15 -15.5 12.5 -37 q-2.5 -21.5 -18.5 -38.5 l-99 -109 l-2 -38 q59 9 112 20 l13 -87 q-63 -12 -131 -22 l-9 -142 q-2 -37 -15.5 -70.5 q-13.5 -33.5 -38 -54.5 q-24.5 -21 -60.5 -21 q-93 0 -114 113 l76 20 q3 -18 10 -30.5 q7 -12.5 20 -12.5 q14 0 24 15 q10 15 12 51 l8 120 q-73 -9 -152 -16 Z" /><glyph glyph-name="uni4E7E" unicode="&#x4e7e;" d="M410 624 q48 58 80.5 126 q32.5 68 54.5 138 l82 -20 q-8 -25 -17 -50.5 q-9 -25.5 -20 -50.5 l201 0 l-10 -87 l-233 0 q-16 -29 -34.5 -56.5 q-18.5 -27.5 -40.5 -53.5 l-63 54 ZM154 -80 l19 188 l-120 0 l8 80 l119 0 l8 79 l-95 0 l9 80 l0 0 l32 305 l90 0 l8 71 l-112 0 l9 79 l111 0 l9 86 l85 0 l-9 -86 l115 0 l-9 -79 l-114 0 l-8 -71 l28 0 q74 0 66 -73 l-34 -312 l-99 0 l-8 -79 l121 0 l-8 -80 l-120 0 l-19 -188 l-82 0 ZM196 494 l119 0 l8 79 l-118 0 l-9 -79 ZM710 440 l-120 -155 q-60 -78 -84 -129 q-24 -51 -25 -98 q-1 -66 62 -66 q27 0 51 15.5 q24 15.5 43.5 53.5 q19.5 38 30.5 105 l80 -15 q-10 -69 -36 -123.5 q-26 -54.5 -69 -85.5 q-43 -31 -104 -31 q-73 0 -109.5 35 q-36.5 35 -36.5 100 q0 119 121 274 l110 142 l-180 0 l10 83 l230 0 q40 0 49 -32 q9 -32 -23 -73 ZM181 347 l118 0 l8 74 l-118 0 l-8 -74 Z" /><glyph glyph-name="uni4E86" unicode="&#x4e86;" d="M497 105 q-7 -85 -45 -135.5 q-38 -50.5 -117 -50.5 q-59 0 -97 41.5 q-38 41.5 -53 119.5 l91 22 q11 -46 27 -65.5 q16 -19.5 39 -19.5 q25 0 42 21 q17 21 21 77 l31 392 l184 227 l-429 0 l11 90 l469 0 q33 0 51 -18.5 q18 -18.5 19.5 -43.5 q1.5 -25 -16.5 -47 l-199 -239 l-29 -371 Z" /><glyph glyph-name="uni4E88" unicode="&#x4e88;" d="M109 542 l279 0 q-71 60 -147 107 l57 61 q60 -38 117 -83 q61 35 101.5 70.5 q40.5 35.5 72.5 72.5 l-387 1 l10 87 l430 -1 q31 0 48.5 -14 q17.5 -14 20 -35 q2.5 -21 -11.5 -42 q-38 -48 -86.5 -98 q-48.5 -50 -132.5 -96 q17 -14 33 -30 l152 0 q47 0 67 -23 q20 -23 6 -66 q-7 -23 -22 -56 q-15 -33 -34 -67 q-19 -34 -41 -64 l-79 40 q25 36 43.5 69.5 q18.5 33.5 36.5 75.5 l-167 0 l-35 -352 q-5 -51 -23 -91.5 q-18 -40.5 -51 -64.5 q-33 -24 -83 -24 q-70 0 -109.5 44.5 q-39.5 44.5 -51.5 119.5 l84 19 q8 -49 26 -71 q18 -22 46 -22 q60 0 70 99 l35 343 l-283 0 l9 91 Z" /><glyph glyph-name="uni4E89" unicode="&#x4e89;" d="M207 79 q8 -37 22 -57.5 q14 -20.5 37 -20.5 q27 0 42 18 q15 18 21 73 l11 104 l-216 0 l9 81 l216 0 l10 93 l-270 0 l9 80 l269 0 l10 92 l-187 0 l6 62 q-21 -20 -43 -38 l-62 62 q68 54 121 117.5 q53 63.5 87 134.5 l77 -36 q-12 -23 -24 -45 l202 -1 q45 0 62 -26 q17 -26 -4 -57 q-14 -21 -33.5 -44.5 q-19.5 -23.5 -40.5 -46.5 l72 0 q35 0 56.5 -19 q21.5 -19 17.5 -58 l-10 -97 l83 0 l-9 -80 l-83 0 l-18 -174 l-219 0 l-12 -115 q-7 -73 -41 -117.5 q-34 -44.5 -101 -44.5 q-58 0 -96.5 37 q-38.5 37 -50.5 105 l80 18 ZM217 624 l214 0 q46 46 82 93 l-215 1 q-37 -50 -81 -94 ZM455 450 l135 0 l9 92 l-134 0 l-10 -92 ZM437 277 l135 0 l9 93 l-134 0 l-10 -93 Z" /><glyph glyph-name="uni4E8B" unicode="&#x4e8b;" d="M232 59 q8 -25 21 -41.5 q13 -16.5 31 -16.5 q24 0 37 21.5 q13 21.5 17 58.5 l4 34 l-232 0 l8 74 l232 0 l6 58 l-272 0 l8 72 l271 0 l7 59 l-229 0 l8 74 l229 0 l5 50 l-216 0 l22 206 l216 0 l5 50 l-264 0 l8 79 l265 0 l5 51 l86 0 l-5 -51 l276 0 l-8 -79 l-277 0 l-5 -50 l133 0 q42 0 57 -19.5 q15 -19.5 12 -50.5 l-15 -136 l-208 0 l-6 -50 l141 0 q33 0 54.5 -16.5 q21.5 -16.5 16.5 -52.5 l-6 -64 l60 0 l-7 -72 l-61 0 l-13 -132 l-220 0 l-5 -47 q-7 -69 -38.5 -109 q-31.5 -40 -93.5 -40 q-52 0 -89.5 32 q-37.5 32 -48.5 94 l78 14 ZM258 575 l133 0 l6 60 l-133 0 l-6 -60 ZM477 575 l125 0 l7 60 l-126 0 l-6 -60 ZM450 319 l137 0 l6 59 l-136 0 l-7 -59 ZM437 189 l136 0 l6 58 l-136 0 l-6 -58 Z" /><glyph glyph-name="uni4E8C" unicode="&#x4e8c;" d="M731 810 l-11 -98 l-544 0 l11 98 l544 0 ZM714 63 l-10 -97 l-652 0 l10 97 l652 0 Z" /><glyph glyph-name="uni4E8E" unicode="&#x4e8e;" d="M217 111 q8 -53 25.5 -77.5 q17.5 -24.5 45.5 -24.5 q58 0 70 104 l35 316 l-281 0 l10 94 l282 0 l27 238 l-242 0 l10 94 l543 0 l-10 -94 l-207 0 l-26 -238 l257 0 l-10 -94 l-258 0 l-35 -324 q-9 -81 -47.5 -134 q-38.5 -53 -112.5 -53 q-71 0 -110.5 47 q-39.5 47 -50.5 127 l85 19 Z" /><glyph glyph-name="uni4E8F" unicode="&#x4e8f;" d="M732 851 l-10 -94 l-528 0 l10 94 l528 0 ZM757 621 l-10 -94 l-382 0 l-55 -141 l269 0 q45 0 65 -23.5 q20 -23.5 14 -57.5 l-34 -199 q-8 -46 -28.5 -89 q-20.5 -43 -58.5 -70.5 q-38 -27.5 -97 -27.5 q-83 0 -129 48.5 q-46 48.5 -62 120.5 l91 24 q11 -56 36 -79 q25 -23 60 -23 q44 0 66 31 q22 31 29 73 l33 188 l-378 0 l88 225 l-146 0 l10 94 l619 0 Z" /><glyph glyph-name="uni4E91" unicode="&#x4e91;" d="M727 835 l-10 -91 l-523 0 l10 91 l523 0 ZM94 -61 l-11 90 q26 3 50 6 q72 106 124 209.5 q52 103.5 90 205.5 l-243 0 l10 91 l641 0 l-10 -91 l-309 0 q-35 -102 -83.5 -205 q-48.5 -103 -107.5 -195 q82 11 162 24 q80 13 157 29 q-18 44 -38 88 q-20 44 -42 84 l77 37 q32 -58 59.5 -121 q27.5 -63 50.5 -124 q23 -61 38 -112 l-79 -34 q-7 22 -15.5 47 q-8.5 25 -18.5 52 q-119 -24 -245.5 -43 q-126.5 -19 -256.5 -38 Z" /><glyph glyph-name="uni4E92" unicode="&#x4e92;" d="M181 214 l131 540 l-173 0 l10 90 l635 0 l-10 -90 l-374 0 l-34 -141 l197 0 q44 0 65.5 -25 q21.5 -25 13.5 -63 l-112 -491 l181 0 l-10 -90 l-654 0 l10 90 l384 0 l41 180 l-301 0 ZM291 304 l212 0 l50 219 l-209 0 l-53 -219 Z" /><glyph glyph-name="uni4E94" unicode="&#x4e94;" d="M718 32 l-10 -89 l-653 0 l10 89 l180 0 l80 403 l-162 0 l10 90 l169 0 l45 226 l-219 0 l9 88 l579 0 l-10 -88 l-265 0 l-45 -226 l136 0 q48 0 66.5 -25 q18.5 -25 13.5 -65 l-48 -403 l114 0 ZM339 32 l174 0 l47 403 l-141 0 l-80 -403 Z" /><glyph glyph-name="uni4E95" unicode="&#x4e95;" d="M117 -81 l-70 63 q66 68 109 147 q43 79 68 186 l-143 0 l9 90 l151 0 q8 46 13 99 l13 127 l-135 0 l10 90 l133 0 l17 167 l90 0 l-16 -167 l167 0 l18 167 l90 0 l-18 -167 l137 0 l-10 -90 l-136 0 l-24 -226 l155 0 l-10 -90 l-154 0 l-42 -395 l-90 0 l42 395 l-175 0 q-26 -126 -74 -222.5 q-48 -96.5 -125 -173.5 ZM344 501 q-5 -51 -12 -96 l168 0 l24 226 l-167 0 l-13 -130 Z" /><glyph glyph-name="uni4E9A" unicode="&#x4e9a;" d="M724 41 l-10 -94 l-680 0 l10 94 l210 0 l75 709 l-183 0 l10 90 l633 0 l-10 -90 l-195 0 l-75 -709 l215 0 ZM343 41 l77 0 l75 709 l-77 0 l-75 -709 ZM757 596 q-21 -101 -52.5 -208 q-31.5 -107 -76.5 -215 l-82 34 q41 97 72 201 q31 104 53 205 l86 -17 ZM228 613 q2 -103 8.5 -208 q6.5 -105 20.5 -206 l-93 -16 q-10 95 -16.5 204 q-6.5 109 -9.5 214 l90 12 Z" /><glyph glyph-name="uni4E9B" unicode="&#x4e9b;" d="M686 527 l78 -21 q-13 -49 -33 -90 q-20 -41 -51 -65.5 q-31 -24.5 -78 -24.5 q-42 0 -73.5 18.5 q-31.5 18.5 -46 61.5 q-14.5 43 -7.5 117 l38 366 l85 0 l-21 -199 q35 28 59 50.5 q24 22.5 44 44 q20 21.5 42 47.5 l57 -53 q-33 -38 -64 -68.5 q-31 -30.5 -66 -59.5 q-35 -29 -82 -60 l-7 -65 q-7 -65 5 -88.5 q12 -23.5 40 -23.5 q30 0 46 29.5 q16 29.5 35 83.5 ZM91 312 l-19 88 q15 3 31 6.5 q16 3.5 31 7.5 l39 365 l81 0 l-37 -346 q22 5 42 10 l47 440 l84 0 l-16 -148 q24 0 48 -0.5 q24 -0.5 48 -0.5 l-9 -86 l-96 1 l-19 -181 q43 14 79 28 l25 -87 q-83 -31 -175 -54 q-92 -23 -184 -43 ZM643 250 l-10 -91 l-470 0 l10 91 l470 0 ZM696 33 l-10 -91 l-625 0 l10 91 l625 0 Z" /><glyph glyph-name="uni4EA1" unicode="&#x4ea1;" d="M133 -42 l76 691 l-85 0 l10 94 l272 0 l15 144 l92 0 l-15 -144 l271 0 l-10 -94 l-457 0 l-66 -597 l419 0 l-10 -93 l-420 0 l0 -1 l-92 0 Z" /><glyph glyph-name="uni4EA2" unicode="&#x4ea2;" d="M780 782 l-10 -94 l-635 0 l10 94 l273 0 l11 106 l92 0 l-11 -106 l270 0 ZM89 -103 l-59 69 q62 62 105 127.5 q43 65.5 69.5 146.5 q26.5 81 38.5 189 l18 161 l268 0 q81 0 73 -82 l-44 -429 q-4 -34 2.5 -51.5 q6.5 -17.5 28.5 -17.5 q20 0 36.5 27.5 q16.5 27.5 31.5 104.5 l78 -27 q-23 -107 -62 -151 q-39 -44 -101 -44 q-55 0 -83 40.5 q-28 40.5 -21 112.5 l44 434 l-170 0 l-9 -81 q-12 -107 -37 -198.5 q-25 -91.5 -73.5 -172.5 q-48.5 -81 -133.5 -158 Z" /><glyph glyph-name="uni4EA4" unicode="&#x4ea4;" d="M786 785 l-9 -87 l-646 0 l10 87 l277 0 l11 103 l92 0 l-11 -103 l276 0 ZM140 385 l-53 73 q127 83 218 214 l71 -52 q-49 -69 -107.5 -129.5 q-58.5 -60.5 -128.5 -105.5 ZM764 432 l-70 -58 q-43 69 -96 133 q-53 64 -95 108 l67 55 q47 -45 97.5 -106 q50.5 -61 96.5 -132 ZM736 7 l-42 -94 q-94 41 -164.5 92 q-70.5 51 -121.5 108 q-68 -62 -151.5 -110 q-83.5 -48 -180.5 -83 l-38 90 q97 36 174.5 79.5 q77.5 43.5 138.5 97.5 q-42 63 -67.5 129 q-25.5 66 -39.5 129 l85 26 q14 -59 36 -112.5 q22 -53.5 54 -101.5 q76 91 120 213 l86 -34 q-28 -73 -65.5 -136.5 q-37.5 -63.5 -83.5 -116.5 q49 -54 113.5 -98 q64.5 -44 146.5 -78 Z" /><glyph glyph-name="uni4EA5" unicode="&#x4ea5;" d="M143 132 l-37 85 q97 43 174 94.5 q77 51.5 144 119.5 q-63 -9 -126 -15 q-63 -6 -125 -9 l-6 88 q17 1 34 2 l-1 0 q42 46 79 95.5 q37 49.5 70 102.5 l-203 0 l8 86 l269 0 l14 107 l86 0 l-14 -107 l264 0 l-8 -86 l-317 0 q-27 -50 -60 -97.5 q-33 -47.5 -71 -92.5 q48 5 95.5 11 q47.5 6 96.5 14 q35 47 71 104 l74 -55 q-70 -109 -145 -191.5 q-75 -82.5 -164 -144.5 q-89 -62 -202 -111 ZM115 -78 l-37 90 q107 41 210 102 q103 61 194 141 q91 80 160 176 l68 -60 q-39 -55 -85.5 -105.5 q-46.5 -50.5 -97.5 -95.5 q57 -41 109.5 -89.5 q52.5 -48.5 98.5 -97.5 l-64 -72 q-49 54 -105 106 q-56 52 -114 92 q-79 -59 -164.5 -106.5 q-85.5 -47.5 -172.5 -80.5 Z" /><glyph glyph-name="uni4EA6" unicode="&#x4ea6;" d="M113 -98 l-62 69 q65 58 109 117.5 q44 59.5 73 127 q29 67.5 47 147.5 q18 80 30 179 l14 119 l-192 0 l10 94 l273 0 l14 133 l92 0 l-14 -133 l270 0 l-10 -94 l-167 0 l-54 -575 q-16 -168 -142 -168 q-58 0 -89 38 q-31 38 -44 108 l80 22 q9 -40 21 -59 q12 -19 31 -19 q21 0 35 18 q14 18 19 74 l52 561 l-94 0 l-15 -122 q-12 -99 -29.5 -185.5 q-17.5 -86.5 -48 -163.5 q-30.5 -77 -81 -148 q-50.5 -71 -128.5 -140 ZM120 185 l-74 48 q46 65 84.5 150 q38.5 85 64.5 180 l81 -20 q-26 -101 -64 -191 q-38 -90 -92 -167 ZM669 161 q-5 54 -15.5 117 q-10.5 63 -23.5 127 q-13 64 -27 119 l80 20 q15 -54 28.5 -117 q13.5 -63 24 -126 q10.5 -63 16.5 -119 l-83 -21 Z" /><glyph glyph-name="uni4EA7" unicode="&#x4ea7;" d="M760 549 l-10 -89 l-517 0 l-13 -119 q-14 -136 -43 -242.5 q-29 -106.5 -88 -189.5 l-76 44 q50 76 76.5 169 q26.5 93 39.5 220 l22 207 l154 0 q-8 40 -14 81.5 q-6 41.5 -10 81.5 l-145 0 l10 88 l277 0 l9 88 l92 0 l-9 -88 l266 0 l-10 -88 l-120 0 q-25 -81 -68 -163 l177 0 ZM393 549 l97 0 q42 79 72 163 l-191 0 q4 -40 9 -81 q5 -41 13 -82 Z" /><glyph glyph-name="uni4EA8" unicode="&#x4ea8;" d="M783 809 l-8 -84 l-636 0 l9 84 l273 0 l8 79 l92 0 l-8 -79 l270 0 ZM206 447 l25 228 l355 0 q39 0 58 -21.5 q19 -21.5 15 -53.5 l-17 -153 l-436 0 ZM299 518 l262 0 l9 83 l-262 0 l-9 -83 ZM482 44 q-3 -47 -23 -76.5 q-20 -29.5 -48.5 -42.5 q-28.5 -13 -59.5 -13 q-43 0 -78 24 q-35 24 -50 83 l82 29 q9 -25 20.5 -35 q11.5 -10 27.5 -10 q16 0 28 10 q12 10 14 39 l10 144 l132 116 l-386 0 l9 79 l449 0 q26 0 40 -16.5 q14 -16.5 13.5 -39.5 q-0.5 -23 -21.5 -41 l-151 -135 l-8 -115 Z" /><glyph glyph-name="uni4EA9" unicode="&#x4ea9;" d="M779 774 l-10 -91 l-635 0 l10 91 l272 0 l12 114 l92 0 l-12 -114 l271 0 ZM692 510 l-60 -564 l-503 0 l68 649 l421 0 q44 0 61 -24.5 q17 -24.5 13 -60.5 ZM260 317 l115 0 l20 190 l-115 0 l-20 -190 ZM459 317 l121 0 l20 190 l-121 0 l-20 -190 ZM230 34 l115 0 l22 204 l-116 0 l-21 -204 ZM429 34 l122 0 l21 204 l-121 0 l-22 -204 Z" /><glyph glyph-name="uni4EAB" unicode="&#x4eab;" d="M783 809 l-8 -84 l-636 0 l9 84 l273 0 l8 79 l92 0 l-8 -79 l270 0 ZM201 447 l25 232 l365 0 q39 0 58 -21.5 q19 -21.5 15 -53.5 l-17 -157 l-446 0 ZM294 519 l272 0 l9 87 l-272 0 l-9 -87 ZM722 218 l-9 -78 l-246 0 l-8 -96 q-6 -71 -44 -101.5 q-38 -30.5 -84 -30.5 q-46 0 -81.5 24 q-35.5 24 -51.5 83 l84 29 q8 -25 19 -35 q11 -10 30 -10 q17 0 28.5 10 q11.5 10 14.5 39 l8 88 l-305 0 l8 78 l334 0 l113 94 l-371 0 l9 79 l434 0 q29 0 41.5 -17 q12.5 -17 9 -40 q-3.5 -23 -24.5 -40 l-91 -76 l183 0 Z" /><glyph glyph-name="uni4EAC" unicode="&#x4eac;" d="M784 797 l-10 -94 l-635 0 l10 94 l266 0 l9 90 l92 0 l-9 -90 l277 0 ZM355 61 l28 277 l-205 0 l32 300 l398 0 q47 0 65 -23.5 q18 -23.5 14 -61.5 l-23 -215 l-192 0 l-29 -285 q-7 -75 -41 -107 q-34 -32 -83 -32 q-43 0 -74 30.5 q-31 30.5 -42 90.5 l79 19 q6 -34 17.5 -44 q11.5 -10 21.5 -10 q14 0 22.5 16.5 q8.5 16.5 11.5 44.5 ZM276 426 l307 0 l13 124 l-307 0 l-13 -124 ZM107 -19 l-61 65 q53 47 96 104.5 q43 57.5 74 127.5 l76 -39 q-34 -78 -81 -141.5 q-47 -63.5 -104 -116.5 ZM594 263 q27 -71 55 -135 q28 -64 62 -119 l-79 -44 q-34 62 -63 126.5 q-29 64.5 -54 140.5 l79 31 Z" /><glyph glyph-name="uni4EAD" unicode="&#x4ead;" d="M784 809 l-9 -86 l-637 0 l9 86 l274 0 l8 79 l92 0 l-8 -79 l271 0 ZM197 459 l23 215 l371 0 q40 0 58.5 -21.5 q18.5 -21.5 14.5 -53.5 l-15 -140 l-452 0 ZM289 531 l283 0 l7 71 l-282 0 l-8 -71 ZM710 208 l-80 0 l12 122 l-453 0 l-12 -116 l-81 0 l21 198 l546 0 q69 0 61 -73 l-14 -131 ZM617 271 l-9 -81 l-145 0 l-13 -146 q-7 -71 -41 -101.5 q-34 -30.5 -81 -30.5 q-47 0 -80.5 26 q-33.5 26 -49.5 85 l84 29 q8 -25 16.5 -35 q8.5 -10 24.5 -10 q16 0 27 10 q11 10 14 39 l12 134 l-181 0 l8 81 l414 0 Z" /><glyph glyph-name="uni4EAE" unicode="&#x4eae;" d="M783 816 l-9 -88 l-635 0 l9 88 l274 0 l7 72 l92 0 l-7 -72 l269 0 ZM690 609 l-15 -134 l-473 0 l23 208 l393 0 q44 0 59.5 -20.5 q15.5 -20.5 12.5 -53.5 ZM296 550 l300 0 l7 58 l-300 0 l-7 -58 ZM175 231 l-89 0 l21 192 l555 0 q44 0 63 -23 q19 -23 15 -60 l-11 -109 l-89 0 l11 105 l-465 0 l-11 -105 ZM647 133 l81 -27 q-25 -107 -64.5 -151.5 q-39.5 -44.5 -106.5 -44.5 q-59 0 -87 36.5 q-28 36.5 -19 109.5 l16 127 l-131 0 l-1 -11 q-8 -67 -32 -116.5 q-24 -49.5 -73.5 -86 q-49.5 -36.5 -136.5 -66.5 l-45 83 q78 21 119.5 47 q41.5 26 59 62 q17.5 36 22.5 87 l9 84 l223 0 q85 0 74 -82 l-16 -122 q-4 -31 1 -46.5 q5 -15.5 31 -15.5 q22 0 40.5 28 q18.5 28 35.5 105 Z" /><glyph glyph-name="uni4EB2" unicode="&#x4eb2;" d="M698 368 l-9 -89 l-219 0 l-22 -230 q-7 -73 -40 -104 q-33 -31 -81 -31 q-40 0 -71 31 q-31 31 -40 92 l79 19 q4 -34 15 -44.5 q11 -10.5 19 -10.5 q12 0 19 16 q7 16 9 41 l21 221 l-242 0 l9 89 l242 0 l11 114 l-287 0 l9 88 l172 0 q-13 66 -19 132 l-113 0 l9 86 l251 0 l11 100 l92 0 l-11 -100 l253 0 l-9 -86 l-110 0 q-19 -66 -52 -132 l169 0 l-9 -88 l-265 0 l-11 -114 l220 0 ZM379 570 l124 0 q32 65 55 132 l-196 0 q3 -33 7.5 -66 q4.5 -33 9.5 -66 ZM277 189 q-35 -72 -80.5 -130 q-45.5 -58 -94.5 -102 l-59 64 q99 81 162 208 l72 -40 ZM724 2 l-78 -52 q-33 55 -62 113 q-29 58 -55 125 l80 36 q26 -64 54 -120.5 q28 -56.5 61 -101.5 Z" /><glyph glyph-name="uni4EBA" unicode="&#x4eba;" d="M747 -13 l-74 -65 q-79 99 -130 182 q-51 83 -79 160 q-28 77 -40 159 q-24 -86 -63 -167 q-39 -81 -105 -164 q-66 -83 -169 -173 l-63 76 q98 84 163.5 167 q65.5 83 105.5 166 q40 83 61.5 166.5 q21.5 83.5 30.5 168.5 l23 209 l95 0 l-22 -215 l0 0 q5 -97 18.5 -180 q13.5 -83 42.5 -160 q29 -77 78.5 -157 q49.5 -80 126.5 -173 Z" /><glyph glyph-name="uni4EBF" unicode="&#x4ebf;" d="M196 -80 l-89 0 l60 548 q-29 -49 -62 -98 l-68 59 q77 102 135.5 222.5 q58.5 120.5 101.5 238.5 l79 -36 q-17 -48 -37 -96 q-20 -48 -43 -97 l-77 -741 ZM736 721 l-188 -255 q-69 -93 -108.5 -160 q-39.5 -67 -56 -117.5 q-16.5 -50.5 -16.5 -97.5 q0 -42 27 -61 q27 -19 61 -19 q75 0 122 48.5 q47 48.5 66 151.5 l93 -16 q-42 -277 -284 -277 q-86 0 -134 43.5 q-48 43.5 -48 119.5 q0 88 48.5 185 q48.5 97 121.5 203 l191 275 l-250 0 l11 93 l309 0 q25 0 42.5 -14 q17.5 -14 18 -40 q0.5 -26 -25.5 -62 Z" /><glyph glyph-name="uni4EC0" unicode="&#x4ec0;" d="M206 -80 l-89 0 l60 548 q-32 -51 -66 -100 l-68 61 q79 102 140 222.5 q61 120.5 105 238.5 l78 -37 q-34 -97 -84 -197 l-76 -736 ZM429 -80 l55 525 l-188 0 l10 94 l188 0 l37 349 l92 0 l-37 -349 l176 0 l-10 -94 l-176 0 l-55 -525 l-92 0 Z" /><glyph glyph-name="uni4EC1" unicode="&#x4ec1;" d="M220 -80 l-91 0 l57 548 q-40 -57 -82 -106 l-67 67 q90 101 158 216.5 q68 115.5 114 244.5 l78 -40 q-36 -99 -91 -202 l-76 -728 ZM750 750 l-10 -94 l-356 0 l10 94 l356 0 ZM711 81 l-10 -94 l-419 0 l10 94 l419 0 Z" /><glyph glyph-name="uni4EC5" unicode="&#x4ec5;" d="M204 -80 l-90 0 l60 550 q-33 -52 -69 -104 l-68 63 q80 102 140.5 222.5 q60.5 120.5 106.5 238.5 l78 -38 q-34 -95 -81 -189 l-77 -743 ZM455 683 q8 -86 25.5 -164 q17.5 -78 44.5 -151 q42 86 74.5 179 q32.5 93 55.5 192 l-276 0 l10 92 l282 0 q50 0 68.5 -25 q18.5 -25 7.5 -68 q-32 -130 -76.5 -250 q-44.5 -120 -101.5 -225 q35 -73 80.5 -141.5 q45.5 -68.5 99.5 -134.5 l-64 -67 q-52 62 -94 125 q-42 63 -76 127 q-48 -73 -102.5 -136.5 q-54.5 -63.5 -117.5 -115.5 l-56 69 q68 59 125.5 129 q57.5 70 105.5 149 q-41 97 -65.5 197.5 q-24.5 100.5 -35.5 206.5 l86 12 Z" /><glyph glyph-name="uni4EC6" unicode="&#x4ec6;" d="M232 -80 l-92 0 l57 544 q-38 -54 -80 -106 l-70 71 q92 102 162 222.5 q70 120.5 120 238.5 l78 -42 q-21 -53 -46.5 -106 q-25.5 -53 -54.5 -106 l-74 -716 ZM388 -80 l92 968 l91 0 l-92 -968 l-91 0 ZM757 289 l-84 -32 q-23 92 -51.5 175.5 q-28.5 83.5 -57.5 152.5 l81 32 q28 -68 57.5 -153 q29.5 -85 54.5 -175 Z" /><glyph glyph-name="uni4EC7" unicode="&#x4ec7;" d="M206 -80 l-88 0 l61 550 q-26 -47 -56 -95 l-67 54 q71 102 126 222.5 q55 120.5 95 238.5 l79 -33 q-15 -46 -33 -92 q-18 -46 -39 -92 l-78 -753 ZM327 672 l78 0 l21 198 l85 0 l-21 -198 l94 0 q81 0 72 -82 l-57 -519 q-3 -30 0.5 -46 q3.5 -16 19.5 -16 q16 0 27.5 29.5 q11.5 29.5 24.5 106.5 l73 -27 q-14 -79 -31 -122.5 q-17 -43.5 -42 -60 q-25 -16.5 -65 -16.5 q-50 0 -75 37 q-25 37 -18 109 l57 519 l-89 0 l-7 -67 q-21 -201 -60.5 -344.5 q-39.5 -143.5 -102.5 -253.5 l-76 46 q56 86 95 223 q39 137 59 330 l7 66 l-78 0 l9 88 Z" /><glyph glyph-name="uni4ECA" unicode="&#x4eca;" d="M101 462 l-43 83 q256 122 382 353 l83 -47 q-14 -25 -30 -50 q35 -54 84 -102.5 q49 -48.5 106 -87.5 q57 -39 116 -65 l-43 -89 q-94 43 -176 113 q-82 70 -139 159 q-68 -85 -154 -152.5 q-86 -67.5 -186 -114.5 ZM517 461 l-73 -57 q-27 43 -58 79 q-31 36 -64 65 l68 61 q34 -30 66.5 -67.5 q32.5 -37.5 60.5 -80.5 ZM232 -5 q141 35 229 109.5 q88 74.5 120 172.5 l-439 0 l9 92 l458 0 q48 0 66.5 -27.5 q18.5 -27.5 1.5 -74.5 q-48 -133 -150 -226.5 q-102 -93.5 -267 -139.5 l-28 94 Z" /><glyph glyph-name="uni4ECB" unicode="&#x4ecb;" d="M115 465 l-44 80 q125 61 215.5 147.5 q90.5 86.5 154.5 197.5 l82 -43 q-14 -25 -30 -50 q49 -79 128.5 -145.5 q79.5 -66.5 165.5 -105.5 l-43 -86 q-90 42 -169 111 q-79 69 -134 154 q-131 -166 -326 -260 ZM441 -85 l62 589 l92 0 l-62 -589 l-92 0 ZM79 -98 l-57 72 q66 55 112 113 q46 58 73.5 132.5 q27.5 74.5 36.5 176.5 l10 108 l93 0 l-10 -111 q-9 -100 -34.5 -185.5 q-25.5 -85.5 -78.5 -160.5 q-53 -75 -145 -145 Z" /><glyph glyph-name="uni4ECD" unicode="&#x4ecd;" d="M204 -80 l-89 0 l62 553 q-32 -51 -67 -100 l-69 59 q80 103 140.5 221 q60.5 118 108.5 232 l74 -33 q-35 -97 -84 -194 l-76 -738 ZM616 759 l-112 0 l-28 -216 q-16 -123 -38 -231.5 q-22 -108.5 -56 -207 q-34 -98.5 -86 -193.5 l-73 48 q49 86 80 174.5 q31 88.5 51.5 189 q20.5 100.5 36.5 221.5 l28 215 l-48 0 l10 89 l246 0 q54 0 68 -27.5 q14 -27.5 3 -74.5 l-51 -209 l33 0 q37 0 55 -24 q18 -24 13 -61 l-40 -355 q-8 -76 -44 -127 q-36 -51 -101 -51 q-62 0 -96.5 44 q-34.5 44 -43.5 118 l80 18 q5 -48 21.5 -69.5 q16.5 -21.5 36.5 -21.5 q23 0 39.5 25.5 q16.5 25.5 23.5 81.5 l39 332 l-121 0 l74 312 Z" /><glyph glyph-name="uni4ECE" unicode="&#x4ece;" d="M456 362 l-73 -46 q-18 43 -38 82.5 q-20 39.5 -42 75.5 q-31 -172 -82.5 -303.5 q-51.5 -131.5 -126.5 -247.5 l-74 55 q44 66 78.5 134.5 q34.5 68.5 61 147.5 q26.5 79 46 174 q19.5 95 32.5 213 l25 227 l89 0 l-25 -228 q-3 -23 -5 -46 q33 -52 67 -109 q34 -57 67 -129 ZM625 873 l-27 -241 q-2 -17 -4 -32 q2 -134 23 -247.5 q21 -113.5 53 -208 q32 -94.5 68 -169.5 l-81 -49 q-36 75 -66.5 178.5 q-30.5 103.5 -45.5 220.5 q-29 -112 -74.5 -208.5 q-45.5 -96.5 -116.5 -196.5 l-73 59 q50 68 87 135.5 q37 67.5 64 143.5 q27 76 46 167.5 q19 91.5 32 207.5 l27 240 l88 0 Z" /><glyph glyph-name="uni4ED1" unicode="&#x4ed1;" d="M144 456 l-48 76 q118 65 203 156.5 q85 91.5 144 208.5 l83 -39 q-13 -27 -28 -53 q44 -84 118 -155.5 q74 -71.5 155 -116.5 l-47 -81 q-83 45 -155 116.5 q-72 71.5 -121 160.5 q-84 -118 -198 -204 l66 0 l-23 -216 q76 32 150 78 q74 46 142 106 l52 -69 q-78 -70 -168.5 -122.5 q-90.5 -52.5 -185.5 -86.5 l-2 -22 q-8 -76 5 -117 q13 -41 43.5 -56.5 q30.5 -15.5 76.5 -15.5 q86 0 132 50.5 q46 50.5 62 135.5 l85 -16 q-20 -118 -91 -187 q-71 -69 -199 -69 q-48 0 -89 12.5 q-41 12.5 -69.5 42.5 q-28.5 30 -41 82.5 q-12.5 52.5 -3.5 131.5 l34 320 q-40 -28 -82 -51 Z" /><glyph glyph-name="uni4ED3" unicode="&#x4ed3;" d="M109 432 l-45 75 q120 71 213 169 q93 98 145 224 l81 -38 q-7 -16 -14 -32 q28 -66 73 -125.5 q45 -59.5 100.5 -109 q55.5 -49.5 114.5 -83.5 l-50 -80 q-53 31 -102 74 q6 -16 3 -38 l-17 -149 q-7 -63 -28 -97.5 q-21 -34.5 -50 -48 q-29 -13.5 -61 -13.5 q-47 0 -82 33.5 q-35 33.5 -46 95.5 l74 19 q8 -32 19.5 -47 q11.5 -15 33.5 -15 q20 0 33 20.5 q13 20.5 20 81.5 l13 114 l-242 0 l-31 -287 q-7 -67 12.5 -104 q19.5 -37 56 -52.5 q36.5 -15.5 79.5 -15.5 q73 0 115 21 q42 21 65 52 q23 31 35 61 l79 -31 q-14 -34 -35 -67.5 q-21 -33.5 -55 -61 q-34 -27.5 -86 -43.5 q-52 -16 -128 -16 q-46 0 -89.5 14 q-43.5 14 -77 44 q-33.5 30 -50.5 77.5 q-17 47.5 -10 115.5 l34 329 q-47 -35 -100 -66 ZM558 545 q17 0 30 -4 q-43 43 -80 94.5 q-37 51.5 -65 109.5 q-36 -58 -80 -107.5 q-44 -49.5 -94 -92.5 l289 0 Z" /><glyph glyph-name="uni4ED4" unicode="&#x4ed4;" d="M217 -80 l-84 0 l62 559 q-34 -55 -71 -107 l-67 54 q77 102 136.5 222.5 q59.5 120.5 102.5 238.5 l78 -33 q-34 -98 -80 -194 l-77 -740 ZM764 488 l-10 -91 l-148 0 l-29 -295 q-5 -52 -21 -93.5 q-16 -41.5 -46 -65.5 q-30 -24 -78 -24 q-44 0 -78.5 38.5 q-34.5 38.5 -44.5 114.5 l87 21 q4 -37 15 -54 q11 -17 27 -17 q18 0 28.5 19.5 q10.5 19.5 14.5 63.5 l29 292 l-194 0 l9 91 l194 0 l10 109 l116 163 l-244 0 l8 88 l287 0 q34 0 49 -15.5 q15 -15.5 14.5 -38 q-0.5 -22.5 -16.5 -45.5 l-119 -174 l-9 -87 l149 0 Z" /><glyph glyph-name="uni4ED5" unicode="&#x4ed5;" d="M216 -80 l-90 0 l58 550 q-37 -55 -78 -108 l-66 65 q86 102 152.5 222.5 q66.5 120.5 114.5 238.5 l75 -38 q-38 -100 -91 -200 l-75 -730 ZM688 55 l-10 -91 l-391 0 l9 91 l147 0 l46 444 l-168 0 l10 91 l168 0 l31 298 l92 0 l-31 -298 l170 0 l-10 -91 l-170 0 l-46 -444 l153 0 Z" /><glyph glyph-name="uni4ED6" unicode="&#x4ed6;" d="M195 -80 l-86 0 l63 560 q-29 -51 -60 -102 l-67 51 q69 102 123.5 222.5 q54.5 120.5 94.5 238.5 l79 -28 q-14 -45 -31.5 -90 q-17.5 -45 -37.5 -90 l-78 -762 ZM460 147 l40 387 l-77 -23 l-37 -356 q-9 -85 19.5 -117 q28.5 -32 81.5 -32 q58 0 102 35.5 q44 35.5 66 125.5 l89 -14 q-23 -109 -90 -172 q-67 -63 -174 -63 q-96 0 -145 56 q-49 56 -36 175 l36 336 l-46 -13 l-19 84 l74 22 l26 242 l86 0 l-23 -216 l77 23 l26 251 l83 0 l-23 -226 l80 24 q36 11 61 -12 q25 -23 21 -60 l-30 -277 q-6 -53 -20 -81.5 q-14 -28.5 -40 -38.5 q-26 -10 -68 -10 l-18 0 l-1 83 l16 0 q27 0 35 10 q8 10 12 43 l27 250 l-85 -24 l-43 -412 l-83 0 Z" /><glyph glyph-name="uni4ED7" unicode="&#x4ed7;" d="M204 -80 l-90 0 l60 547 q-33 -51 -69 -101 l-68 63 q81 102 143.5 222.5 q62.5 120.5 107.5 238.5 l78 -38 q-35 -99 -87 -200 l-75 -732 ZM291 -88 l-56 74 q62 41 111 85.5 q49 44.5 86 96.5 q-42 83 -64 177.5 q-22 94.5 -28 192.5 l84 15 q3 -82 19 -156.5 q16 -74.5 44 -138.5 q35 72 56 159 q21 87 31 194 l2 18 l-250 0 l9 91 l250 0 l16 168 l89 0 l-16 -168 l102 0 l-10 -91 l-101 0 l-2 -21 q-13 -133 -43.5 -242.5 q-30.5 -109.5 -83.5 -199.5 q36 -57 82.5 -97 q46.5 -40 100.5 -61 l-42 -89 q-61 30 -109.5 72.5 q-48.5 42.5 -86.5 94.5 q-75 -96 -190 -174 Z" /><glyph glyph-name="uni4ED8" unicode="&#x4ed8;" d="M211 -80 l-87 0 l60 558 q-38 -57 -80 -112 l-67 63 q86 102 152.5 222.5 q66.5 120.5 114.5 238.5 l76 -36 q-39 -102 -93 -203 l-76 -731 ZM414 111 q13 -104 65 -104 q26 0 42 24 q16 24 22 83 l51 476 l-257 0 l10 94 l257 0 l20 192 l89 0 l-20 -192 l74 0 l-10 -94 l-74 0 l-51 -484 q-9 -85 -44 -136 q-35 -51 -103 -51 q-67 0 -103.5 46.5 q-36.5 46.5 -46.5 129.5 l79 16 ZM419 213 q-12 62 -30 130 q-18 68 -47 135 l78 33 q55 -131 78 -271 l-79 -27 Z" /><glyph glyph-name="uni4ED9" unicode="&#x4ed9;" d="M198 -80 l-84 0 l57 546 q-34 -50 -71 -99 l-63 62 q86 102 152.5 222.5 q66.5 120.5 114.5 238.5 l72 -35 q-43 -112 -103 -222 l-75 -713 ZM428 672 l-68 -648 l79 0 l91 864 l88 0 l-91 -864 l69 0 l72 648 l88 0 l-80 -737 l-414 0 l78 737 l88 0 Z" /><glyph glyph-name="uni4EDF" unicode="&#x4edf;" d="M201 -80 l-89 0 l60 549 q-32 -51 -67 -101 l-68 61 q80 102 141 222.5 q61 120.5 105 238.5 l78 -37 q-34 -96 -84 -197 l-76 -736 ZM430 -80 l51 485 l-194 0 l9 90 l195 0 l25 239 q-66 -11 -132 -18 l-17 88 q98 10 188 29.5 q90 19.5 177 45.5 l27 -83 q-73 -25 -153 -44 l-27 -257 l181 0 l-10 -90 l-181 0 l-51 -485 l-88 0 Z" /><glyph glyph-name="uni4EE3" unicode="&#x4ee3;" d="M213 -80 l-91 0 l59 546 q-36 -53 -75 -104 l-69 67 q86 102 152.5 222.5 q66.5 120.5 114.5 238.5 l78 -40 q-40 -103 -94 -206 l-75 -724 ZM660 185 l83 -10 q-8 -77 -24 -136 q-16 -59 -43 -92.5 q-27 -33.5 -70 -33.5 q-44 0 -76 40 q-32 40 -50.5 108.5 q-18.5 68.5 -22.5 155.5 q-3 69 -3 143 q0 74 3 149 l-142 -19 l-2 84 l147 20 q4 75 8.5 145.5 q4.5 70.5 9.5 131.5 l90 0 q-4 -59 -9 -126.5 q-5 -67.5 -8 -138.5 l222 30 l2 -84 l-228 -31 q-3 -75 -3 -150 q0 -75 4 -144 q7 -112 24.5 -160.5 q17.5 -48.5 36.5 -48.5 q16 0 29.5 44 q13.5 44 21.5 123 ZM676 861 q23 -30 42.5 -65.5 q19.5 -35.5 37.5 -74.5 l-72 -46 q-15 39 -33.5 74.5 q-18.5 35.5 -42.5 66.5 l68 45 Z" /><glyph glyph-name="uni4EE4" unicode="&#x4ee4;" d="M102 491 l-41 82 q128 62 218.5 139.5 q90.5 77.5 149.5 186.5 l81 -45 q-9 -18 -20 -36 q34 -53 84 -98 q50 -45 109 -81.5 q59 -36.5 120 -64.5 l-40 -89 q-98 46 -182.5 110.5 q-84.5 64.5 -141.5 149.5 q-64 -81 -150 -143.5 q-86 -62.5 -187 -110.5 ZM408 627 q27 -26 56 -60.5 q29 -34.5 51 -67.5 l-70 -55 q-21 34 -48 68 q-27 34 -53 59 l64 56 ZM219 206 q38 -20 77 -40.5 q39 -20.5 79 -43.5 q62 40 111.5 90.5 q49.5 50.5 83.5 105.5 l-429 0 l9 92 l455 0 q32 0 54 -13.5 q22 -13.5 28.5 -36.5 q6.5 -23 -10.5 -53 q-38 -69 -94 -129.5 q-56 -60.5 -120 -109.5 q34 -22 69 -46 q35 -24 69 -50 l-60 -73 q-103 74 -194.5 132.5 q-91.5 58.5 -182.5 101.5 l55 73 Z" /><glyph glyph-name="uni4EE5" unicode="&#x4ee5;" d="M221 -89 l-48 79 q115 64 193 137 q78 73 127 155.5 q49 82.5 75.5 175.5 q26.5 93 36.5 198 l22 232 l91 0 l-22 -235 q-9 -89 -28 -172 q-19 -83 -53 -160 q41 -84 72.5 -175 q31.5 -91 52.5 -189 l-84 -31 q-19 81 -42.5 153 q-23.5 72 -53.5 140 q-54 -85 -137 -162 q-83 -77 -202 -146 ZM102 61 l-38 81 q35 17 69 35 l71 677 l92 0 l-65 -620 q72 45 139 96 l45 -76 q-74 -55 -152 -103.5 q-78 -48.5 -161 -89.5 ZM511 563 l-81 -47 q-20 63 -48 122.5 q-28 59.5 -52 97.5 l79 44 q28 -43 54 -99.5 q26 -56.5 48 -117.5 Z" /><glyph glyph-name="uni4EEA" unicode="&#x4eea;" d="M539 651 q-10 52 -27.5 109 q-17.5 57 -38.5 101 l79 30 q20 -45 38.5 -99 q18.5 -54 31.5 -113 l-83 -28 ZM204 -80 l-90 0 l60 547 q-33 -51 -69 -101 l-68 63 q81 102 143.5 222.5 q62.5 120.5 108.5 238.5 l78 -38 q-36 -98 -87 -198 l-76 -734 ZM300 -78 l-51 75 q137 112 231 253 q-49 112 -78 239 q-29 127 -41 271 l89 16 q7 -125 29.5 -231.5 q22.5 -106.5 59.5 -198.5 q106 198 140 446 l91 -13 q-27 -153 -72 -285 q-45 -132 -113 -247 q36 -70 81 -131 q45 -61 97 -115 l-56 -80 q-108 108 -181 238 q-93 -129 -226 -237 Z" /><glyph glyph-name="uni4EEC" unicode="&#x4eec;" d="M218 -80 l-88 0 l62 564 q-32 -56 -68 -111 l-67 56 q74 102 130.5 222.5 q56.5 120.5 97.5 238.5 l79 -34 q-28 -82 -67 -168 l-79 -768 ZM526 723 l-77 -31 q-10 46 -27 90.5 q-17 44.5 -32 72.5 l75 30 q18 -33 33.5 -75 q15.5 -42 27.5 -87 ZM537 108 q3 -58 15.5 -83 q12.5 -25 30.5 -25 q14 0 25.5 17.5 q11.5 17.5 16.5 69.5 l70 670 l-138 0 l10 81 l139 0 q38 0 58 -18.5 q20 -18.5 16 -55.5 l-72 -685 q-7 -66 -25 -101 q-18 -35 -43.5 -48.5 q-25.5 -13.5 -55.5 -13.5 q-49 0 -83 40 q-34 40 -39 140 l75 12 ZM284 -80 l78 733 l85 0 l-77 -733 l-86 0 Z" /><glyph glyph-name="uni4EF0" unicode="&#x4ef0;" d="M187 -80 l-87 0 l63 552 q-12 -23 -24.5 -46.5 q-12.5 -23.5 -25.5 -45.5 l-66 49 q65 102 115.5 222.5 q50.5 120.5 87.5 238.5 l79 -30 q-13 -42 -28.5 -85 q-15.5 -43 -33.5 -86 l-80 -769 ZM254 73 l-31 79 q25 10 49 20 l69 651 q36 14 80.5 31 q44.5 17 74.5 34 l33 -75 q-24 -13 -52.5 -25.5 q-28.5 -12.5 -56.5 -23.5 l-58 -550 q19 10 37 20.5 q18 10.5 34 21.5 l36 -67 l66 640 l173 0 q37 0 55 -19.5 q18 -19.5 14 -56.5 l-56 -541 q-6 -59 -39 -84.5 q-33 -25.5 -86 -29.5 l-26 -2 l0 86 l22 4 q17 4 31 13 q14 9 17 40 l54 507 l-84 0 l-86 -826 l-83 0 l27 260 q-47 -31 -104 -58.5 q-57 -27.5 -110 -48.5 Z" /><glyph glyph-name="uni4EF2" unicode="&#x4ef2;" d="M197 -80 l-89 0 l61 550 q-31 -50 -64 -100 l-68 59 q77 102 136 222.5 q59 120.5 102 238.5 l78 -36 q-17 -48 -37 -96 q-20 -48 -43 -96 l-76 -742 ZM430 -80 l33 316 l-174 0 l49 469 l175 0 l19 183 l88 0 l-19 -183 l94 0 q45 0 62.5 -22.5 q17.5 -22.5 13.5 -58.5 l-42 -388 l-178 0 l-33 -316 l-88 0 ZM384 322 l88 0 l32 297 l-89 0 l-31 -297 ZM560 322 l91 0 l33 297 l-92 0 l-32 -297 Z" /><glyph glyph-name="uni4EF6" unicode="&#x4ef6;" d="M189 -80 l-85 0 l63 563 q-31 -52 -64 -105 l-65 51 q73 102 129 222.5 q56 120.5 96 238.5 l77 -30 q-15 -45 -33 -90.5 q-18 -45.5 -39 -90.5 l-79 -759 ZM435 -80 l40 376 l-206 0 l10 89 l205 0 l24 230 l-103 0 q-29 -64 -67 -124 l-61 51 q85 131 123 295 l73 -17 q-14 -60 -33 -116 l78 0 l19 184 l86 0 l-19 -184 l162 0 l-9 -89 l-163 0 l-24 -230 l175 0 l-9 -89 l-175 0 l-40 -376 l-86 0 Z" /><glyph glyph-name="uni4EF7" unicode="&#x4ef7;" d="M210 -80 l-85 0 l62 567 q-38 -59 -79 -116 l-65 58 q82 102 144.5 222.5 q62.5 120.5 108.5 238.5 l75 -32 q-35 -96 -84 -194 l-13 -124 q87 65 152.5 152 q65.5 87 104.5 195 l77 -30 q-7 -21 -16 -41 q29 -79 80.5 -152.5 q51.5 -73.5 115.5 -123.5 l-52 -65 q-32 23 -61 53 l-62 -613 l-89 0 l64 625 l76 0 q-36 39 -65 87 q-29 48 -51 100 q-45 -79 -106 -145 q-61 -66 -131 -115 l-40 46 l-61 -593 ZM312 -86 l-67 61 q64 69 100.5 179.5 q36.5 110.5 48.5 261.5 l10 124 l85 0 l-10 -127 q-7 -96 -27 -189.5 q-20 -93.5 -54 -173.5 q-34 -80 -86 -136 Z" /><glyph glyph-name="uni4EFB" unicode="&#x4efb;" d="M205 -80 l-88 0 l60 558 q-35 -55 -74 -109 l-66 60 q83 102 146 222.5 q63 120.5 109 238.5 l76 -34 q-36 -97 -85 -194 l-78 -742 ZM673 41 l-10 -89 l-375 0 l10 89 l147 0 l36 337 l-179 0 l9 89 l179 0 l28 270 q-63 -12 -126 -19 l-18 84 q94 10 183 29.5 q89 19.5 172 45.5 l26 -79 q-68 -24 -145 -42 l-30 -289 l168 0 l-10 -89 l-167 0 l-36 -337 l138 0 Z" /><glyph glyph-name="uni4EFD" unicode="&#x4efd;" d="M209 -80 l-87 0 l63 553 q-14 -24 -27 -48 q-13 -24 -27 -47 l-66 51 q68 102 120.5 222.5 q52.5 120.5 89.5 238.5 l79 -32 q-14 -44 -30.5 -88.5 q-16.5 -44.5 -35.5 -88.5 l-79 -761 ZM282 -81 l-58 64 q84 86 129 209 q45 123 68 262 l-52 0 l5 44 q-16 -28 -34 -55 l-65 60 q55 79 94.5 177 q39.5 98 66.5 205 l82 -11 q-22 -90 -51.5 -173.5 q-29.5 -83.5 -69.5 -160.5 l206 0 q29 0 47 -16 q-37 83 -59.5 165.5 q-22.5 82.5 -32.5 184.5 l81 16 q12 -106 41.5 -204 q29.5 -98 77.5 -180 l-70 -61 q-8 16 -16 31 q1 -8 0 -17 l-47 -404 q-7 -58 -33.5 -97 q-26.5 -39 -78.5 -39 q-50 0 -80 33 q-30 33 -37 86 l71 12 q5 -21 13.5 -36 q8.5 -15 23.5 -15 q14 0 22 13 q8 13 12 44 l47 398 l-78 0 q-12 -72 -31.5 -147.5 q-19.5 -75.5 -47.5 -147.5 q-28 -72 -64 -133.5 q-36 -61.5 -82 -106.5 Z" /><glyph glyph-name="uni4EFF" unicode="&#x4eff;" d="M220 -80 l-89 0 l63 578 q-38 -64 -81 -128 l-68 59 q77 102 136.5 222.5 q59.5 120.5 102.5 238.5 l78 -36 q-26 -76 -63 -156 l-79 -778 ZM319 -81 l-72 55 q55 75 88.5 163.5 q33.5 88.5 54 191 q20.5 102.5 35.5 219.5 l15 117 l-97 0 l9 89 l177 0 l14 134 l83 0 l-13 -134 l174 0 l-9 -89 l-251 0 l-14 -117 q-2 -18 -5 -35 l145 0 q36 0 56.5 -22.5 q20.5 -22.5 15.5 -60.5 l-44 -367 q-7 -61 -36 -102.5 q-29 -41.5 -85 -41.5 q-53 0 -84.5 35 q-31.5 35 -38.5 92 l74 14 q5 -26 15 -42.5 q10 -16.5 27 -16.5 q16 0 26.5 15.5 q10.5 15.5 14.5 51.5 l44 359 l-142 0 q-23 -145 -63 -277 q-40 -132 -114 -231 Z" /><glyph glyph-name="uni4F01" unicode="&#x4f01;" d="M101 440 l-47 83 q129 70 224.5 165.5 q95.5 95.5 161.5 209.5 l84 -44 q-15 -26 -31 -52 q51 -83 134 -153 q83 -70 172 -123 l-43 -89 q-94 56 -176 129.5 q-82 73.5 -139 162.5 q-69 -89 -155.5 -162.5 q-86.5 -73.5 -184.5 -126.5 ZM712 16 l-9 -88 l-667 0 l10 88 l106 0 l42 399 l88 0 l-43 -399 l103 0 l58 550 l92 0 l-21 -201 l173 0 l-9 -88 l-174 0 l-27 -261 l278 0 Z" /><glyph glyph-name="uni4F0A" unicode="&#x4f0a;" d="M199 -80 l-87 0 l62 566 q-33 -54 -69 -107 l-68 60 q78 102 138.5 222.5 q60.5 120.5 104.5 238.5 l78 -36 q-33 -95 -82 -193 l-77 -751 ZM379 835 l285 0 q40 0 61.5 -20.5 q21.5 -20.5 16.5 -60.5 l-15 -144 l65 0 l-9 -85 l-65 0 l-24 -225 l-189 0 q-23 -113 -64 -208.5 q-41 -95.5 -101 -171.5 l-74 54 q55 61 91.5 143 q36.5 82 57.5 183 l-104 0 l9 85 l111 0 q4 31 8 65 l8 75 l-147 0 l9 85 l147 0 l16 141 l-102 0 l9 84 ZM545 610 l94 0 l15 141 l-93 0 l-16 -141 ZM528 449 q-3 -33 -8 -64 l95 0 l15 140 l-94 0 l-8 -76 Z" /><glyph glyph-name="uni4F0D" unicode="&#x4f0d;" d="M207 -87 l-89 0 l53 548 q-34 -54 -70 -106 l-70 60 q80 105 141.5 227 q61.5 122 106.5 240 l81 -27 q-37 -103 -84 -201 l-69 -741 ZM735 13 l-9 -83 l-481 0 l8 83 l108 0 l67 396 l-95 0 l10 87 l100 0 l40 238 l-121 0 l8 85 l400 0 l-9 -85 l-191 0 l-40 -238 l100 0 q48 0 65.5 -23.5 q17.5 -23.5 12.5 -63.5 l-47 -396 l74 0 ZM448 13 l127 0 l46 396 l-106 0 l-67 -396 Z" /><glyph glyph-name="uni4F0E" unicode="&#x4f0e;" d="M200 -80 l-89 0 l60 548 q-32 -51 -66 -100 l-68 61 q79 102 140 222.5 q61 120.5 105 238.5 l78 -37 q-35 -97 -84 -196 l-76 -737 ZM273 -80 l-38 73 q72 38 129.5 79.5 q57.5 41.5 103.5 88.5 q-43 63 -69 131.5 q-26 68.5 -41 147.5 l-41 0 l9 81 l161 0 l14 135 l-175 0 l8 81 l175 0 l15 147 l81 0 l-15 -147 l183 0 l-8 -81 l-183 0 l-14 -135 l89 0 q44 0 59.5 -28 q15.5 -28 1.5 -70 q-25 -73 -60 -140.5 q-35 -67.5 -85 -128.5 q34 -40 78.5 -80.5 q44.5 -40.5 99.5 -83.5 l-48 -69 q-115 90 -185 173 q-48 -47 -108.5 -90.5 q-60.5 -43.5 -136.5 -83.5 ZM436 440 q12 -60 32.5 -113.5 q20.5 -53.5 53.5 -104.5 q36 48 64.5 101.5 q28.5 53.5 50.5 116.5 l-201 0 Z" /><glyph glyph-name="uni4F0F" unicode="&#x4f0f;" d="M200 -80 l-86 0 l61 557 q-34 -54 -71 -107 l-67 59 q80 102 141.5 222.5 q61.5 120.5 105.5 238.5 l77 -34 q-35 -97 -84 -196 l-77 -740 ZM290 -92 l-71 58 q101 131 160.5 269.5 q59.5 138.5 87.5 286.5 l-154 0 l9 87 l158 0 q4 30 7 61 l19 208 l83 0 l-24 -269 l188 0 l-10 -87 l-176 0 q17 -147 55.5 -282 q38.5 -135 108.5 -279 l-80 -43 q-53 110 -87 219.5 q-34 109.5 -50 237.5 q-21 -85 -51 -161 q-30 -76 -72 -150.5 q-42 -74.5 -101 -155.5 ZM756 671 l-71 -25 q-13 50 -28.5 96.5 q-15.5 46.5 -32.5 89.5 l68 25 q19 -42 34.5 -87.5 q15.5 -45.5 29.5 -98.5 Z" /><glyph glyph-name="uni4F10" unicode="&#x4f10;" d="M213 -80 l-91 0 l59 546 q-36 -53 -75 -104 l-69 67 q86 102 152.5 222.5 q66.5 120.5 114.5 238.5 l78 -40 q-40 -103 -94 -206 l-75 -724 ZM673 884 q19 -30 38 -64.5 q19 -34.5 38 -72.5 l-72 -46 q-18 40 -36.5 76.5 q-18.5 36.5 -38.5 67.5 l71 39 ZM269 74 q50 28 95.5 61 q45.5 33 86.5 71 q-1 5 -1 11 q-6 77 -7 161.5 q-1 84.5 0 168.5 l-125 -17 l-2 84 l129 17 q2 68 5.5 130.5 q3.5 62.5 6.5 116.5 l87 0 q-3 -53 -6 -112.5 q-3 -59.5 -5 -122.5 l243 33 l2 -84 l-248 -33 q-1 -68 -0.5 -136 q0.5 -68 4.5 -132 q86 101 131 206 l71 -39 q-30 -64 -79 -137 q-49 -73 -114 -142 q11 -87 30 -129 q19 -42 36 -42 q16 0 29.5 49 q13.5 49 21.5 128 l81 -10 q-8 -77 -23.5 -136 q-15.5 -59 -42 -92.5 q-26.5 -33.5 -69.5 -33.5 q-51 0 -86.5 53 q-35.5 53 -53.5 139 q-36 -30 -74 -57 q-38 -27 -79 -49 l-44 75 Z" /><glyph glyph-name="uni4F11" unicode="&#x4f11;" d="M211 -80 l-88 0 l62 550 q-28 -48 -59 -96 l-67 55 q72 102 128 222.5 q56 120.5 96 238.5 l79 -34 q-15 -46 -33.5 -92.5 q-18.5 -46.5 -39.5 -92.5 l-59 -570 q50 84 87.5 162.5 q37.5 78.5 65.5 159.5 q28 81 48 173 l-114 0 l9 80 l175 0 l22 212 l87 0 l-22 -212 l183 0 l-9 -80 l-124 0 q6 -96 20.5 -178 q14.5 -82 38 -165.5 q23.5 -83.5 56.5 -184.5 l-76 -33 q-24 77 -41.5 144 q-17.5 67 -29 131.5 q-11.5 64.5 -18.5 134 q-7 69.5 -9 150.5 l-71 -675 l-87 0 l71 676 l-1 0 q-14 -85 -32 -156 q-18 -71 -42 -136.5 q-24 -65.5 -56 -131 q-32 -65.5 -74 -138.5 l-60 41 l-16 -155 Z" /><glyph glyph-name="uni4F17" unicode="&#x4f17;" d="M100 442 l-39 84 q128 59 224.5 157.5 q96.5 98.5 148.5 214.5 l79 -42 q-13 -30 -29 -59 q33 -55 81 -103 q48 -48 104 -86.5 q56 -38.5 115 -64.5 l-41 -86 q-92 42 -171.5 110.5 q-79.5 68.5 -135.5 154.5 q-66 -92 -153 -163 q-87 -71 -183 -117 ZM347 504 q-9 -79 -25 -151 q29 -38 57 -78 q28 -40 54 -84 l-60 -64 q-19 33 -38.5 64.5 q-19.5 31.5 -39.5 59.5 q-31 -98 -76.5 -181.5 q-45.5 -83.5 -107.5 -149.5 l-70 58 q89 90 144.5 227.5 q55.5 137.5 73.5 298.5 l88 0 ZM604 504 q-6 -65 -16 -123 q5 -83 26 -157 q21 -74 51 -134 q30 -60 62 -104 l-72 -66 q-31 47 -64 120.5 q-33 73.5 -48 156.5 q-28 -84 -67 -151.5 q-39 -67.5 -89 -125.5 l-70 61 q85 91 136 224 q51 133 64 299 l87 0 Z" /><glyph glyph-name="uni4F18" unicode="&#x4f18;" d="M198 -80 l-87 0 l61 551 q-32 -52 -67 -102 l-68 60 q79 102 139.5 222.5 q60.5 120.5 103.5 238.5 l79 -36 q-35 -98 -84 -198 l-77 -736 ZM294 -80 l-61 60 q75 84 118.5 175 q43.5 91 66 190 q22.5 99 33.5 206 l-148 0 l8 83 l148 0 l24 254 l79 0 l-24 -254 l212 0 l-9 -83 l-211 0 q-13 -117 -36.5 -228.5 q-23.5 -111.5 -70.5 -213 q-47 -101.5 -129 -189.5 ZM722 703 l-67 -27 q-10 44 -23.5 86.5 q-13.5 42.5 -30.5 80.5 l68 26 q17 -40 29.5 -81 q12.5 -41 23.5 -85 ZM614 488 q-10 -73 -17.5 -148.5 q-7.5 -75.5 -12.5 -140.5 q-8 -97 -0.5 -138.5 q7.5 -41.5 23.5 -41.5 q16 0 29.5 45 q13.5 45 24.5 148 l74 -12 q-10 -103 -29 -162.5 q-19 -59.5 -45 -84.5 q-26 -25 -59 -25 q-30 0 -55.5 22 q-25.5 22 -38 79 q-12.5 57 -4.5 161 q5 67 14 145.5 q9 78.5 19 152.5 l77 0 Z" /><glyph glyph-name="uni4F19" unicode="&#x4f19;" d="M212 -80 l-84 0 l61 559 q-32 -55 -69 -110 l-65 60 q77 102 136.5 222.5 q59.5 120.5 102.5 238.5 l76 -32 q-33 -96 -82 -197 l-76 -741 ZM733 -44 l-75 -46 q-55 106 -87.5 208.5 q-32.5 102.5 -44.5 216.5 q-19 -77 -46.5 -143.5 q-27.5 -66.5 -69 -134.5 q-41.5 -68 -103.5 -149 l-66 60 q94 113 148.5 225 q54.5 112 81 229.5 q26.5 117.5 37.5 248.5 l17 199 l83 0 l-17 -202 q-2 -23 -4.5 -45.5 q-2.5 -22.5 -5.5 -44.5 q-2 -136 19 -247.5 q21 -111.5 56.5 -204 q35.5 -92.5 76.5 -170.5 ZM442 419 l-78 -13 q-4 78 -11.5 158 q-7.5 80 -16.5 150 l80 16 q7 -68 15 -151 q8 -83 11 -160 ZM691 389 l-72 29 q28 69 50 145.5 q22 76.5 38 154.5 l76 -16 q-15 -76 -38.5 -156 q-23.5 -80 -53.5 -157 Z" /><glyph glyph-name="uni4F1A" unicode="&#x4f1a;" d="M113 503 l-40 80 q125 55 215 134 q90 79 156 182 l78 -44 q-14 -23 -29 -46 q49 -71 128 -130.5 q79 -59.5 165 -95.5 l-39 -85 q-93 39 -172.5 102 q-79.5 63 -134.5 141 q-132 -153 -327 -238 ZM610 541 l-9 -82 l-355 0 l8 82 l356 0 ZM80 -69 l-7 91 q32 2 64 5 q50 55 89 111 q39 56 72 116 l-218 0 l9 87 l641 0 l-9 -87 l-321 0 q-68 -123 -150 -217 q148 14 290 35 q-17 31 -36.5 60.5 q-19.5 29.5 -39.5 56.5 l75 42 q48 -64 90 -138.5 q42 -74.5 64 -135.5 l-76 -39 q-13 33 -33 73 q-120 -18 -246 -32.5 q-126 -14.5 -258 -27.5 Z" /><glyph glyph-name="uni4F1E" unicode="&#x4f1e;" d="M99 519 l-38 80 q250 103 387 301 l76 -44 q-14 -22 -29 -43 q33 -45 83 -86 q50 -41 107.5 -74.5 q57.5 -33.5 114.5 -55.5 l-36 -86 q-95 37 -180.5 99 q-85.5 62 -143.5 138 q-68 -72 -155.5 -130.5 q-87.5 -58.5 -185.5 -98.5 ZM321 -79 l26 246 l-284 0 l10 90 l283 0 l38 361 l89 0 l-38 -361 l285 0 l-10 -90 l-284 0 l-26 -246 l-89 0 ZM172 496 l80 20 q11 -49 23 -93 q12 -44 25 -78 l-81 -27 q-13 37 -25.5 83.5 q-12.5 46.5 -21.5 94.5 ZM593 309 l-71 41 q25 35 47.5 78 q22.5 43 38.5 85 l76 -29 q-16 -44 -40 -92 q-24 -48 -51 -83 Z" /><glyph glyph-name="uni4F1F" unicode="&#x4f1f;" d="M213 -80 l-86 0 l63 581 q-39 -68 -82 -133 l-64 56 q71 102 131.5 224.5 q60.5 122.5 105.5 241.5 l74 -34 q-27 -75 -61 -152 l-81 -784 ZM413 -80 l40 377 l-168 0 l8 79 l168 0 l13 119 l-142 0 l9 83 l141 0 l12 114 l-159 0 l10 85 l158 0 l12 111 l84 0 l-12 -111 l174 0 l-10 -85 l-173 0 l-12 -114 l157 0 l-9 -83 l-156 0 l-13 -119 l131 0 q32 0 49.5 -20 q17.5 -20 13.5 -57 l-20 -178 q-6 -51 -30.5 -80 q-24.5 -29 -68.5 -29 q-74 0 -93 106 l66 20 q7 -28 13.5 -36 q6.5 -8 13.5 -8 q16 0 21 51 l16 152 l-120 0 l-40 -377 l-84 0 Z" /><glyph glyph-name="uni4F20" unicode="&#x4f20;" d="M209 -80 l-88 0 l62 551 q-26 -47 -56 -96 l-67 54 q71 102 125 222.5 q54 120.5 94 238.5 l79 -33 q-15 -45 -33 -91 q-18 -46 -38 -91 l-78 -755 ZM314 271 q27 51 50 103.5 q23 52.5 44 106.5 l-111 0 l8 85 l133 0 q17 52 33 110 l-128 0 l8 85 l143 0 q8 30 15.5 61 q7.5 31 14.5 63 l82 -11 q-7 -29 -13.5 -57 q-6.5 -28 -13.5 -56 l187 0 l-8 -85 l-201 0 q-8 -28 -16 -55.5 q-8 -27.5 -17 -54.5 l244 0 l-8 -85 l-265 0 q-21 -56 -44 -111 l184 0 q53 0 71.5 -28.5 q18.5 -28.5 -8.5 -75.5 q-34 -59 -73 -110.5 q-39 -51.5 -86 -98.5 q38 -38 73 -79 l-56 -61 q-52 60 -107.5 112 q-55.5 52 -113.5 95 l55 62 q46 -35 89 -73 q36 36 70 80 q34 44 63 96 l-198 0 q-12 -27 -26 -54 l-74 36 Z" /><glyph glyph-name="uni4F24" unicode="&#x4f24;" d="M213 -80 l-91 0 l59 547 q-36 -53 -75 -104 l-69 63 q86 104 152.5 225 q66.5 121 114.5 239 l78 -40 q-40 -104 -94 -205 l-75 -725 ZM309 578 q51 66 90 142 q39 76 68 162 l81 -29 q-16 -51 -35 -97 l274 0 l-10 -95 l-309 0 q-38 -70 -89 -136 l-70 53 ZM315 -81 l-61 70 q82 69 126.5 164 q44.5 95 68.5 228 l-108 0 l9 86 l112 0 l21 133 l89 0 l-20 -133 l119 0 q32 0 52 -22 q20 -22 16 -55 l-38 -320 q-8 -67 -36.5 -108.5 q-28.5 -41.5 -95.5 -41.5 q-48 0 -80 35.5 q-32 35.5 -41 102.5 l76 16 q6 -32 17 -50 q11 -18 30 -18 q18 0 27 15.5 q9 15.5 14 57.5 l37 302 l-111 0 q-25 -148 -78.5 -264.5 q-53.5 -116.5 -144.5 -197.5 Z" /><glyph glyph-name="uni4F26" unicode="&#x4f26;" d="M204 -80 l-88 0 l61 557 q-35 -55 -74 -108 l-66 60 q82 102 144.5 222.5 q62.5 120.5 108.5 238.5 l76 -34 q-36 -98 -86 -197 l-10 -102 q88 63 152 145 q64 82 112 186 l77 -33 q-11 -25 -22 -48 q29 -73 82.5 -141 q53.5 -68 116.5 -116 l-51 -67 q-62 42 -112 104.5 q-50 62.5 -83 136.5 q-93 -145 -228 -237 l-46 55 l-64 -622 ZM627 151 l88 -11 q-12 -104 -67 -163 q-55 -59 -156 -59 q-54 0 -92 22 q-38 22 -55 71 q-17 49 -9 130 l39 366 l88 0 l-19 -177 q58 23 108 54.5 q50 31.5 95 70.5 l45 -79 q-56 -45 -119.5 -80 q-63.5 -35 -138.5 -61 l-9 -88 q-8 -81 12 -110.5 q20 -29.5 64 -29.5 q48 0 82.5 33 q34.5 33 43.5 111 Z" /><glyph glyph-name="uni4F2A" unicode="&#x4f2a;" d="M213 -80 l-88 0 l61 553 q-30 -52 -62 -101 l-67 57 q75 102 127 222.5 q52 120.5 94 238.5 l79 -35 q-14 -41 -30 -82.5 q-16 -41.5 -34 -83.5 l-80 -769 ZM305 -88 l-76 52 q65 81 107.5 169.5 q42.5 88.5 68.5 189.5 q26 101 43 222 l-146 0 l9 83 l148 0 q1 9 2 19 l3 27 l-65 -28 q-9 30 -23.5 68.5 q-14.5 38.5 -30.5 67.5 l75 33 q13 -27 25 -58.5 q12 -31.5 22 -59.5 l19 173 l85 0 l-27 -222 q-1 -10 -2 -20 l152 0 q34 0 52 -20 q18 -20 14 -57 l-49 -440 q-7 -66 -23 -105 q-16 -39 -36 -58 q-20 -19 -41 -25 q-21 -6 -39 -6 q-56 0 -89.5 47.5 q-33.5 47.5 -35.5 118.5 l74 14 q7 -47 18.5 -69.5 q11.5 -22.5 35.5 -22.5 q21 0 33.5 28 q12.5 28 20.5 106 l45 406 l-144 0 q-5 -37 -11 -73 q-6 -36 -13 -71 l53 20 q17 -46 33 -91.5 q16 -45.5 29 -98.5 l-71 -25 q-13 48 -25 85.5 q-12 37.5 -26 75.5 q-29 -131 -74.5 -245 q-45.5 -114 -119.5 -210 Z" /><glyph glyph-name="uni4F2F" unicode="&#x4f2f;" d="M213 -80 l-91 0 l59 546 q-36 -53 -75 -104 l-69 67 q86 102 152.5 222.5 q66.5 120.5 114.5 238.5 l78 -40 q-40 -103 -94 -206 l-75 -724 ZM767 649 l-76 -707 l-398 0 l84 794 l127 0 q19 36 34.5 73 q15.5 37 27.5 75 l88 -19 q-10 -32 -22.5 -64 q-12.5 -32 -29.5 -65 l91 0 q41 0 59.5 -24.5 q18.5 -24.5 14.5 -62.5 ZM433 394 l215 0 l26 252 l-215 0 l-26 -252 ZM394 32 l216 0 l29 280 l-215 0 l-30 -280 Z" /><glyph glyph-name="uni4F30" unicode="&#x4f30;" d="M197 -80 l-91 0 l62 551 q-29 -50 -62 -101 l-69 59 q75 102 133 222.5 q58 120.5 100 238.5 l81 -32 q-15 -45 -33 -90 q-18 -45 -39 -90 l-82 -758 ZM774 687 l-10 -92 l-177 0 l-20 -186 l63 0 q45 0 63 -23 q18 -23 13 -60 l-43 -403 l-373 0 l51 486 l136 0 l20 186 l-179 0 l10 92 l179 0 l21 200 l89 0 l-21 -200 l178 0 ZM386 11 l200 0 l32 310 l-199 0 l-33 -310 Z" /><glyph glyph-name="uni4F34" unicode="&#x4f34;" d="M209 -80 l-86 0 l63 563 q-15 -27 -29.5 -53 q-14.5 -26 -29.5 -52 l-74 51 q70 104 125 223.5 q55 119.5 93 237.5 l79 -32 q-13 -41 -28.5 -82 q-15.5 -41 -32.5 -83 l-80 -773 ZM435 -80 l31 293 l-183 0 l10 85 l182 0 l18 172 l-172 0 l9 85 l172 0 l35 328 l86 0 l-35 -328 l163 0 l-9 -85 l-163 0 l-18 -172 l186 0 l-9 -85 l-186 0 l-31 -293 l-86 0 ZM705 592 l-76 27 q20 47 38 100 q18 53 31 105 l78 -20 q-12 -53 -31 -109.5 q-19 -56.5 -40 -102.5 ZM362 811 l81 12 q5 -54 11.5 -107.5 q6.5 -53.5 13.5 -96.5 l-82 -20 q-7 44 -13.5 100.5 q-6.5 56.5 -10.5 111.5 Z" /><glyph glyph-name="uni4F36" unicode="&#x4f36;" d="M336 509 l-54 59 q86 62 147 144 q61 82 107 186 l73 -30 q-9 -23 -20 -46 q25 -70 73.5 -138 q48.5 -68 107.5 -118 l-50 -60 q-57 41 -102 101.5 q-45 60.5 -74 130.5 q-84 -138 -208 -229 ZM204 -80 l-89 0 l61 549 q-30 -49 -62 -98 l-67 58 q75 102 133 222.5 q58 120.5 100 238.5 l78 -35 q-16 -47 -35.5 -94 q-19.5 -47 -41.5 -95 l-77 -746 ZM606 486 l-69 -39 q-15 40 -33 73 q-18 33 -38 61 l66 42 q40 -57 74 -137 ZM392 229 q21 -19 42.5 -38.5 q21.5 -19.5 41.5 -41.5 q46 39 81.5 86 q35.5 47 56.5 99 l-301 0 l8 86 l320 0 q39 0 57 -27.5 q18 -27.5 1 -72.5 q-24 -68 -68.5 -127.5 q-44.5 -59.5 -96.5 -106.5 q21 -26 41.5 -53 q20.5 -27 39.5 -57 l-69 -57 q-55 80 -108.5 142 q-53.5 62 -110.5 109 l65 59 Z" /><glyph glyph-name="uni4F38" unicode="&#x4f38;" d="M196 -80 l-85 0 l58 544 q-29 -45 -60 -91 l-62 65 q77 102 137.5 222.5 q60.5 120.5 102.5 238.5 l81 -30 q-19 -56 -43 -112 q-24 -56 -53 -112 l-76 -725 ZM427 -80 l28 265 l-174 0 l58 555 l174 0 l16 148 l84 0 l-16 -148 l95 0 q40 0 57.5 -22.5 q17.5 -22.5 13.5 -56.5 l-51 -476 l-173 0 l-28 -265 l-84 0 ZM402 503 l86 0 l17 154 l-87 0 l-16 -154 ZM572 503 l87 0 l16 154 l-86 0 l-17 -154 ZM377 268 l87 0 l16 159 l-86 0 l-17 -159 ZM548 268 l86 0 l17 159 l-87 0 l-16 -159 Z" /><glyph glyph-name="uni4F3A" unicode="&#x4f3a;" d="M199 -80 l-89 0 l61 550 q-32 -51 -66 -101 l-68 60 q78 102 139 222.5 q61 120.5 104 238.5 l78 -36 q-33 -95 -82 -193 l-77 -741 ZM465 78 q19 -79 73 -79 q32 0 50.5 22.5 q18.5 22.5 25.5 91.5 l70 655 l-303 0 l10 88 l297 0 q48 0 68 -25 q20 -25 15 -63 l-72 -666 q-9 -85 -45 -134 q-36 -49 -108 -49 q-64 0 -104.5 38 q-40.5 38 -53.5 104 l77 17 ZM624 679 l-9 -86 l-281 0 l9 86 l281 0 ZM586 432 l-29 -265 l-258 0 l37 341 l180 0 q42 0 58 -21 q16 -21 12 -55 ZM390 249 l94 0 l19 178 l-95 0 l-18 -178 Z" /><glyph glyph-name="uni4F3C" unicode="&#x4f3c;" d="M94 -80 l62 551 q-30 -50 -62 -98 l-67 56 q49 65 91 142 q42 77 77 159 q35 82 63 160 l77 -34 q-15 -46 -34 -93 q-19 -47 -41 -94 l-77 -749 l-89 0 ZM302 -13 q105 78 172 170.5 q67 92.5 104.5 200.5 q37.5 108 51.5 230 l31 272 l89 0 l-31 -275 q-8 -74 -23.5 -143.5 q-15.5 -69.5 -39.5 -134.5 q32 -81 59 -172 q27 -91 43 -180 l-78 -30 q-14 68 -33.5 136.5 q-19.5 68.5 -42.5 131.5 q-42 -78 -102 -147 q-60 -69 -142 -129 l-58 70 ZM219 128 q34 22 66 45 l66 646 l85 0 l-59 -572 q41 36 79 75 l52 -61 q-58 -60 -119.5 -111 q-61.5 -51 -125.5 -95 l-44 73 ZM500 475 q-5 77 -18.5 151.5 q-13.5 74.5 -27.5 123.5 l78 25 q17 -58 29.5 -129 q12.5 -71 19.5 -146 l-81 -25 Z" /><glyph glyph-name="uni4F43" unicode="&#x4f43;" d="M194 -80 l-89 0 l61 550 q-30 -49 -62 -98 l-67 57 q75 102 133 222.5 q58 120.5 100 238.5 l78 -35 q-16 -47 -35.5 -94 q-19.5 -47 -41.5 -95 l-77 -746 ZM775 739 l-85 -793 l-424 0 l92 876 l347 0 q42 0 58 -24.5 q16 -24.5 12 -58.5 ZM404 454 l86 0 l30 280 l-87 0 l-29 -280 ZM569 454 l90 0 l29 280 l-89 0 l-30 -280 ZM360 34 l86 0 l36 340 l-86 0 l-36 -340 ZM525 34 l90 0 l35 340 l-89 0 l-36 -340 Z" /><glyph glyph-name="uni4F46" unicode="&#x4f46;" d="M203 -80 l-91 0 l55 526 q-29 -42 -61 -84 l-69 67 q86 102 152.5 222.5 q66.5 120.5 114.5 238.5 l78 -40 q-44 -114 -105 -226 l-74 -704 ZM747 743 l-60 -592 l-364 0 l69 676 l282 0 q41 0 59 -23.5 q18 -23.5 14 -60.5 ZM454 537 l182 0 l21 203 l-183 0 l-20 -203 ZM424 238 l181 0 l23 220 l-182 0 l-22 -220 ZM725 39 l-10 -94 l-461 0 l10 94 l461 0 Z" /><glyph glyph-name="uni4F4D" unicode="&#x4f4d;" d="M213 -80 l-91 0 l59 546 q-36 -53 -75 -104 l-69 67 q86 102 152.5 222.5 q66.5 120.5 114.5 238.5 l78 -40 q-40 -103 -94 -206 l-75 -724 ZM766 704 l-9 -89 l-422 0 l10 89 l168 0 l18 162 l92 0 l-18 -162 l161 0 ZM717 33 l-9 -89 l-447 0 l10 89 l192 0 q58 121 99 254 q41 133 72 281 l87 -20 q-29 -140 -69 -268.5 q-40 -128.5 -90 -246.5 l155 0 ZM372 129 q4 108 -3 209 q-7 101 -22 195 l83 15 q16 -89 24.5 -194 q8.5 -105 4.5 -218 l-87 -7 Z" /><glyph glyph-name="uni4F4E" unicode="&#x4f4e;" d="M198 -80 l-89 0 l61 549 q-31 -50 -65 -100 l-68 60 q77 102 137.5 222.5 q60.5 120.5 103.5 238.5 l78 -36 q-33 -94 -81 -192 l-77 -742 ZM264 -82 l-24 73 q25 9 48 17 l84 796 l4 0 q100 11 192 30.5 q92 19.5 180 47.5 l26 -81 q-54 -19 -113 -34 q-6 -53 -11 -108 q-5 -55 -9 -110 l127 0 l-9 -88 l-123 0 q-4 -70 -5.5 -132 q-1.5 -62 -1.5 -107 q0 -77 2.5 -121 q2.5 -44 8 -62 q5.5 -18 12.5 -18 q12 0 20.5 36.5 q8.5 36.5 15.5 134.5 l68 -7 q-10 -145 -34.5 -208.5 q-24.5 -63.5 -73.5 -63.5 q-30 0 -53.5 25.5 q-23.5 25.5 -36.5 90 q-13 64.5 -13 181.5 q0 56 1.5 119 q1.5 63 5.5 132 l-132 0 l-42 -414 q24 12 47 25 l30 -70 q-46 -28 -93.5 -48.5 q-47.5 -20.5 -97.5 -35.5 ZM429 549 l128 0 q3 47 7.5 96.5 q4.5 49.5 9.5 100.5 q-63 -13 -127 -22 l-18 -175 ZM502 220 q11 -68 19 -139.5 q8 -71.5 12 -146.5 l-67 -13 q-4 78 -12 149.5 q-8 71.5 -19 138.5 l67 11 Z" /><glyph glyph-name="uni4F4F" unicode="&#x4f4f;" d="M213 -80 l-91 0 l59 546 q-36 -53 -75 -104 l-69 67 q86 102 152.5 222.5 q66.5 120.5 114.5 238.5 l78 -40 q-40 -103 -94 -206 l-75 -724 ZM707 29 l-9 -87 l-441 0 l9 87 l168 0 l30 285 l-145 0 l10 87 l144 0 l24 228 l-152 0 l9 87 l157 0 q-10 38 -25 77.5 q-15 39.5 -26 63.5 l79 30 q14 -26 30.5 -67 q16.5 -41 25.5 -80 l-63 -24 l229 0 l-9 -87 l-160 0 l-26 -228 l160 0 l-9 -87 l-161 0 l-33 -285 l184 0 Z" /><glyph glyph-name="uni4F50" unicode="&#x4f50;" d="M203 -80 l-90 0 l60 548 q-32 -51 -67 -101 l-68 62 q80 102 141.5 222.5 q61.5 120.5 106.5 238.5 l78 -37 q-35 -98 -85 -197 l-45 -434 q62 83 115 188 q53 105 92 221 l-117 0 l10 89 l134 0 q23 85 37 169 l86 -13 q-14 -79 -35 -156 l223 0 l-10 -89 l-238 0 q-31 -97 -71 -187 l269 0 l-10 -90 l-131 0 l-34 -326 l165 0 l-10 -90 l-450 0 l9 90 l199 0 l34 326 l-84 0 q-58 -113 -127 -203 l-58 48 l-29 -279 Z" /><glyph glyph-name="uni4F51" unicode="&#x4f51;" d="M206 -80 l-90 0 l60 547 q-34 -52 -71 -102 l-68 64 q83 102 146 222.5 q63 120.5 109 238.5 l79 -38 q-37 -100 -88 -200 l-40 -380 q71 80 124.5 168.5 q53.5 88.5 93.5 190.5 l-126 0 l9 89 l149 0 q25 78 46 168 l85 -19 q-19 -79 -41 -149 l208 0 l-10 -89 l-229 0 q-35 -92 -78 -173 l170 0 q45 0 62.5 -23 q17.5 -23 12.5 -59 l-46 -431 l-329 0 l38 362 q-46 -65 -101 -125 l-42 56 l-33 -318 ZM439 31 l156 0 l38 341 l-158 0 l-36 -341 Z" /><glyph glyph-name="uni4F53" unicode="&#x4f53;" d="M199 -80 l-88 0 l55 524 q-29 -41 -60 -82 l-69 67 q86 102 152.5 222.5 q66.5 120.5 114.5 238.5 l78 -40 q-45 -118 -110 -235 l-45 -425 q73 97 119 195.5 q46 98.5 80 214.5 l-114 0 l9 92 l175 0 l20 196 l90 0 l-20 -196 l182 0 l-9 -92 l-127 0 q15 -122 44 -224.5 q29 -102.5 79 -208.5 l-77 -44 q-47 105 -71 214.5 q-24 109.5 -33 243.5 l-42 -414 l108 0 l-9 -90 l-109 0 l-16 -157 l-90 0 l16 157 l-110 0 l9 90 l111 0 l42 415 q-28 -136 -74 -244 q-46 -108 -123 -212 l-61 48 l-27 -254 Z" /><glyph glyph-name="uni4F55" unicode="&#x4f55;" d="M218 -80 l-90 0 l60 555 q-35 -56 -75 -111 l-69 65 q81 102 143.5 222.5 q62.5 120.5 107.5 238.5 l81 -38 q-34 -93 -80 -186 l-78 -746 ZM440 111 q8 -38 26 -68 q18 -30 46 -30 q30 0 50 24 q20 24 26 76 l69 615 l-285 0 l11 92 l433 0 l-11 -92 l-64 0 l-68 -623 q-9 -81 -46 -134 q-37 -53 -111 -53 q-51 0 -85.5 25.5 q-34.5 25.5 -54.5 65.5 q-20 40 -28 83 l92 19 ZM571 550 l-38 -351 l-214 0 l45 423 l141 0 q29 0 49.5 -18.5 q20.5 -18.5 16.5 -53.5 ZM401 280 l64 0 l27 261 l-64 0 l-27 -261 Z" /><glyph glyph-name="uni4F59" unicode="&#x4f59;" d="M114 525 l-38 84 q128 50 217 123 q89 73 156 166 l78 -45 q-15 -22 -31 -43 q52 -62 130.5 -110.5 q78.5 -48.5 166.5 -78.5 l-38 -88 q-96 35 -176 89.5 q-80 54.5 -137 123.5 q-66 -69 -148.5 -126 q-82.5 -57 -179.5 -95 ZM720 376 l-9 -87 l-246 0 l-21 -229 q-7 -77 -39.5 -114.5 q-32.5 -37.5 -88.5 -37.5 q-40 0 -73 29.5 q-33 29.5 -51 87.5 l79 33 q14 -34 24 -47 q10 -13 23 -13 q15 0 24.5 15 q9.5 15 12.5 50 l20 226 l-264 0 l9 87 l263 0 l10 108 l-174 0 l9 84 l402 0 l-9 -84 l-139 0 l-10 -108 l248 0 ZM109 -54 l-71 56 q47 59 88 120.5 q41 61.5 69 126.5 l78 -35 q-31 -70 -71 -136 q-40 -66 -93 -132 ZM600 236 q22 -66 49.5 -130 q27.5 -64 59.5 -127 l-82 -41 q-33 66 -60 133.5 q-27 67.5 -50 135.5 l83 29 Z" /><glyph glyph-name="uni4F5B" unicode="&#x4f5b;" d="M192 -80 l-85 0 l57 541 q-29 -46 -60 -91 l-67 59 q75 102 133 222.5 q58 120.5 100 238.5 l80 -28 q-35 -105 -83 -207 l-75 -735 ZM295 -90 l-66 54 q62 81 96 157.5 q34 76.5 53 157.5 l-116 0 l46 288 l109 0 q1 7 1.5 13.5 q0.5 6.5 1.5 13.5 l9 96 l-102 0 l8 81 l102 0 l10 107 l75 0 l-9 -107 l56 1 l10 106 l81 0 l-10 -106 l56 0 q32 0 47.5 -20 q15.5 -20 11.5 -57 l-22 -208 l-121 0 l-12 -128 l70 0 q37 0 55 -20.5 q18 -20.5 14 -58.5 l-11 -119 q-6 -61 -34.5 -91 q-28.5 -30 -77.5 -35 l-23 -2 l0 81 l13 2 q22 3 31.5 14 q9.5 11 11.5 35 l12 114 l-69 0 l-35 -359 l-81 0 l35 359 l-63 0 q-19 -94 -56.5 -183.5 q-37.5 -89.5 -106.5 -185.5 ZM497 594 q-1 -7 -1.5 -13.5 q-0.5 -6.5 -0.5 -13.5 l54 0 l12 123 l-56 0 l-8 -96 ZM680 567 l12 123 l-50 0 l-12 -123 l50 0 ZM529 359 l12 128 l-54 0 q-3 -33 -6.5 -65 q-3.5 -32 -8.5 -63 l57 0 ZM347 359 l46 0 q5 30 9 62 q4 32 7 66 l-42 0 l-20 -128 Z" /><glyph glyph-name="uni4F5C" unicode="&#x4f5c;" d="M213 -80 l-89 0 l59 551 q-36 -55 -76 -107 l-70 65 q86 102 149.5 222.5 q63.5 120.5 111.5 238.5 l80 -36 q-19 -50 -41.5 -100.5 q-22.5 -50.5 -47.5 -99.5 l-76 -734 ZM395 -80 l77 733 l-23 0 q-19 -42 -41 -83 q-22 -41 -48 -79 l-73 49 q54 80 91.5 166 q37.5 86 65.5 183 l83 -23 q-9 -30 -19.5 -61.5 q-10.5 -31.5 -22.5 -63.5 l296 0 l-10 -88 l-211 0 l-17 -166 l183 0 l-10 -86 l-182 0 l-18 -165 l198 0 l-10 -86 l-197 0 l-24 -230 l-88 0 Z" /><glyph glyph-name="uni4F60" unicode="&#x4f60;" d="M207 -80 l-85 0 l61 549 q-31 -50 -65 -100 l-68 60 q77 102 137 222.5 q60 120.5 103 238.5 l79 -36 q-35 -100 -87 -204 l-75 -730 ZM298 546 q35 51 66 111 q31 60 54 119.5 q23 59.5 34 106.5 l83 -17 q-14 -55 -35 -112 l206 -1 q45 0 58.5 -25.5 q13.5 -25.5 0.5 -56.5 q-13 -42 -33.5 -86.5 q-20.5 -44.5 -43.5 -84.5 l-70 36 q16 30 32.5 64.5 q16.5 34.5 30.5 71.5 l-214 1 q-20 -44 -44 -88 q-24 -44 -52 -85 l-73 46 ZM581 591 l-44 -542 q-6 -73 -39.5 -104 q-33.5 -31 -81.5 -31 q-40 0 -71 29 q-31 29 -39 90 l76 19 q6 -34 17 -44.5 q11 -10.5 21 -10.5 q31 0 35 61 l44 533 l82 0 ZM313 77 l-72 37 q47 86 79.5 172.5 q32.5 86.5 54.5 168.5 l74 -17 q-21 -89 -55 -180.5 q-34 -91.5 -81 -180.5 ZM604 432 l76 9 q6 -82 21 -180.5 q15 -98.5 38 -187.5 l-77 -23 q-16 61 -28 128 q-12 67 -19 132.5 q-7 65.5 -11 121.5 Z" /><glyph glyph-name="uni4F63" unicode="&#x4f63;" d="M185 -80 l-86 0 l63 554 q-28 -49 -58 -99 l-67 54 q71 102 125 222.5 q54 120.5 94 238.5 l79 -33 q-15 -46 -33.5 -92.5 q-18.5 -46.5 -39.5 -93.5 l-77 -751 ZM440 -9 l27 254 l-100 0 q-14 -93 -32.5 -170.5 q-18.5 -77.5 -43.5 -152.5 l-82 24 q36 89 56.5 192 q20.5 103 33.5 234 l51 485 l349 0 q50 0 67.5 -27.5 q17.5 -27.5 13.5 -65.5 l-75 -709 q-7 -72 -28 -104 q-21 -32 -59 -32 q-34 0 -55.5 28.5 q-21.5 28.5 -24.5 109.5 l59 5 q1 -10 2.5 -25 q1.5 -15 4 -26.5 q2.5 -11.5 5.5 -11.5 q4 0 7 11.5 q3 11.5 6 39.5 l20 195 l-97 0 l-27 -254 l-78 0 ZM406 588 l97 0 l19 178 l-98 0 l-18 -178 ZM581 588 l97 0 l18 178 l-97 0 l-18 -178 ZM383 371 q-2 -22 -5 -42 l98 0 l18 175 l-97 0 l-14 -133 ZM553 329 l98 0 l18 175 l-97 0 l-19 -175 Z" /><glyph glyph-name="uni4F69" unicode="&#x4f69;" d="M165 -80 l-80 0 l65 587 q-14 -31 -29.5 -61.5 q-15.5 -30.5 -30.5 -59.5 l-65 45 q58 101 103 221 q45 120 77 238 l80 -20 q-15 -57 -35 -117 l-85 -833 ZM175 -51 q32 101 50.5 190 q18.5 89 29.5 176.5 q11 87.5 20 182.5 l36 358 l349 0 q42 0 57.5 -22.5 q15.5 -22.5 9.5 -63.5 q-12 -85 -23.5 -187 q-11.5 -102 -21 -204 q-9.5 -102 -15.5 -189 q-5 -69 -7 -106 q-2 -37 0.5 -50.5 q2.5 -13.5 8.5 -13.5 q7 0 11.5 10 q4.5 10 9 41 q4.5 31 12.5 93 l66 -7 q-7 -75 -17 -120.5 q-10 -45.5 -23 -69 q-13 -23.5 -28 -31.5 q-15 -8 -33 -8 q-35 0 -54.5 23 q-19.5 23 -24.5 78.5 q-5 55.5 3 151.5 q6 68 12.5 146.5 q6.5 78.5 14 159 q7.5 80.5 15 154.5 q7.5 74 14.5 133 l-270 0 l-30 -277 q-11 -100 -21.5 -191.5 q-10.5 -91.5 -29 -184.5 q-18.5 -93 -53.5 -199 l-68 27 ZM323 58 l50 485 l77 0 l10 94 l-74 0 l8 76 l221 0 l-8 -76 l-74 0 l-11 -94 l19 0 q33 0 45.5 -19 q12.5 -19 9.5 -52 l-33 -328 q-4 -43 -18 -63.5 q-14 -20.5 -55 -20.5 l-9 0 l0 63 l7 1 q11 2 14.5 12 q3.5 10 6.5 38 l27 292 l-26 0 l-55 -525 l-61 0 l56 525 l-25 0 l-42 -408 l-60 0 Z" /><glyph glyph-name="uni4F6C" unicode="&#x4f6c;" d="M202 -80 l-86 0 l60 550 q-33 -52 -70 -105 l-67 64 q79 102 139.5 222.5 q60.5 120.5 104.5 238.5 l82 -31 q-37 -106 -88 -209 l-75 -730 ZM254 291 q66 36 124.5 81 q58.5 45 110.5 97 l-196 0 l10 88 l148 0 l12 117 l-117 0 l9 85 l117 0 l13 125 l87 0 l-13 -125 l114 0 l-6 -55 q29 50 52 102 l76 -35 q-48 -110 -123 -214 l94 0 l-9 -88 l-155 0 q-69 -80 -150 -147 l-10 -100 q56 26 112 63 q56 37 110 88 l53 -64 q-66 -63 -139 -107 q-73 -44 -146 -70 q-5 -51 3.5 -78.5 q8.5 -27.5 27.5 -38 q19 -10.5 48 -10.5 q49 0 81.5 31 q32.5 31 49.5 110 l85 -15 q-14 -100 -68.5 -158.5 q-54.5 -58.5 -155.5 -58.5 q-55 0 -93.5 22 q-38.5 22 -56 71 q-17.5 49 -9.5 130 l12 112 q-31 -20 -62 -39 l-40 81 ZM538 557 l29 0 q45 56 83 117 l-100 0 l-12 -117 Z" /><glyph glyph-name="uni4F6F" unicode="&#x4f6f;" d="M201 -80 l-90 0 l61 557 q-33 -53 -69 -105 l-66 57 q80 102 141 222.5 q61 120.5 104 238.5 l77 -33 q-33 -93 -80 -189 l-78 -748 ZM426 -80 l26 248 l-188 0 l9 86 l188 0 l18 166 l-160 0 l9 88 l160 0 l15 146 l-163 0 l10 86 l102 0 q-8 30 -20.5 59 q-12.5 29 -23.5 52 l72 28 q14 -27 27 -58.5 q13 -31.5 22 -63.5 l-45 -17 l108 0 q20 36 35.5 72 q15.5 36 27.5 74 l77 -28 q-11 -31 -25 -60.5 q-14 -29.5 -29 -57.5 l92 0 l-9 -86 l-170 0 l-15 -146 l158 0 l-9 -88 l-158 0 l-18 -166 l188 0 l-9 -86 l-188 0 l-26 -248 l-88 0 Z" /><glyph glyph-name="uni4F70" unicode="&#x4f70;" d="M196 -80 l-89 0 l61 549 q-30 -49 -63 -99 l-68 59 q77 102 135.5 222.5 q58.5 120.5 100.5 238.5 l79 -35 q-16 -47 -36 -94.5 q-20 -47.5 -43 -95.5 l-77 -745 ZM794 856 l-9 -86 l-161 0 q-7 -29 -16.5 -57.5 q-9.5 -28.5 -22.5 -58.5 l87 0 q38 0 55.5 -23.5 q17.5 -23.5 13.5 -59.5 l-67 -623 l-376 0 l74 706 l125 0 q25 57 41 116 l-165 0 l9 86 l412 0 ZM425 352 l207 0 l23 214 l-207 0 l-23 -214 ZM392 37 l207 0 l25 234 l-207 0 l-25 -234 Z" /><glyph glyph-name="uni4F73" unicode="&#x4f73;" d="M203 -80 l-90 0 l61 548 q-32 -51 -67 -101 l-68 62 q80 102 141 222.5 q61 120.5 104 238.5 l79 -37 q-35 -96 -84 -196 l-76 -737 ZM742 550 l-9 -88 l-428 0 l9 88 l177 0 l15 135 l-151 0 l9 88 l151 0 l12 115 l89 0 l-12 -115 l145 0 l-9 -88 l-145 0 l-15 -135 l162 0 ZM717 34 l-10 -89 l-463 0 l9 89 l183 0 l19 175 l-155 0 l10 89 l154 0 l13 123 l89 0 l-13 -123 l162 0 l-10 -89 l-161 0 l-19 -175 l192 0 Z" /><glyph glyph-name="uni4F7F" unicode="&#x4f7f;" d="M200 -80 l-89 0 l62 550 q-28 -48 -59 -96 l-67 55 q73 102 129 222.5 q56 120.5 96 238.5 l79 -34 q-15 -46 -34 -92.5 q-19 -46.5 -40 -92.5 l-77 -751 ZM267 -88 l-41 74 q111 53 165 124 q-30 34 -54 70.5 q-24 36.5 -42 73.5 l63 42 q28 -60 75 -115 q13 31 22 66.5 q9 35.5 15 76.5 l-166 0 l32 302 l165 0 l8 83 l-170 0 l9 85 l169 0 l9 94 l79 0 l-9 -94 l190 0 l-9 -85 l-190 0 l-8 -83 l99 0 q41 0 56.5 -20.5 q15.5 -20.5 11.5 -52.5 l-25 -229 l-173 0 q-8 -59 -22 -109 q-14 -50 -35 -92 q52 -46 114 -78 q62 -32 128 -46 l-22 -76 q-79 15 -145 49.5 q-66 34.5 -119 81.5 q-62 -79 -180 -142 ZM392 402 l87 0 l14 145 l-86 0 l-15 -145 ZM557 402 l92 0 l15 145 l-93 0 l-14 -145 Z" /><glyph glyph-name="uni4F84" unicode="&#x4f84;" d="M208 -80 l-90 0 l60 555 q-35 -57 -72 -111 l-69 65 q78 102 138.5 222.5 q60.5 120.5 106.5 238.5 l78 -39 q-33 -89 -74 -176 l-78 -755 ZM666 717 q26 -66 47 -130.5 q21 -64.5 31 -120.5 l-75 -31 q-8 38 -20 80 q-83 -21 -166 -36 q-83 -15 -172 -26 l-13 87 q25 3 46 5 q36 54 65 110.5 q29 56.5 53 114.5 l-93 0 l9 86 l382 0 l-9 -86 l-199 0 q-44 -114 -106 -212 q45 6 90 14.5 q45 8.5 90 19.5 q-8 23 -16.5 46.5 q-8.5 23.5 -18.5 46.5 l75 32 ZM711 26 l-10 -90 l-461 0 l9 90 l184 0 l19 186 l-157 0 l10 90 l157 0 l14 132 l86 0 l-14 -132 l162 0 l-10 -90 l-162 0 l-19 -186 l192 0 Z" /><glyph glyph-name="uni4F88" unicode="&#x4f88;" d="M207 -80 l-89 0 l61 549 q-31 -50 -64 -99 l-68 59 q77 102 136.5 222.5 q59.5 120.5 102.5 238.5 l79 -36 q-33 -94 -81 -193 l-77 -741 ZM342 428 l-47 77 q114 28 203 75 q-29 45 -64 88 q-25 -17 -54 -33 l-49 64 q68 32 125 81.5 q57 49.5 87 107.5 l77 -19 q-15 -31 -36 -60 l116 -1 q39 1 60 -23.5 q21 -24.5 7 -62.5 q-32 -63 -94 -119 q-62 -56 -146 -100.5 q-84 -44.5 -185 -74.5 ZM496 714 q19 -22 36.5 -46 q17.5 -24 32.5 -48 q36 25 64.5 53.5 q28.5 28.5 47.5 60.5 l-157 1 q-11 -11 -24 -21 ZM288 -80 l-50 81 q129 42 225 108 q-16 25 -34.5 49.5 q-18.5 24.5 -36.5 46.5 q-38 -30 -80 -56 l-53 68 q60 33 107.5 76 q47.5 43 82 89.5 q34.5 46.5 53.5 87.5 l83 -18 q-13 -29 -29 -56 l115 -1 q40 0 60 -24 q20 -24 7 -62 q-52 -130 -170.5 -230 q-118.5 -100 -279.5 -159 ZM452 259 q20 -23 39.5 -48.5 q19.5 -25.5 36.5 -50.5 q78 70 118 155 l-144 1 q-24 -30 -50 -57 Z" /><glyph glyph-name="uni4F8B" unicode="&#x4f8b;" d="M186 -80 l-86 0 l64 565 q-13 -26 -25.5 -51 q-12.5 -25 -25.5 -50 l-64 45 q61 102 108 222.5 q47 120.5 83 238.5 l78 -27 q-11 -35 -23 -70.5 q-12 -35.5 -26 -70.5 l-83 -802 ZM534 73 q5 -34 15.5 -54.5 q10.5 -20.5 28.5 -20.5 q6 0 15 4 q9 4 17.5 21 q8.5 17 12.5 56 l86 809 l81 0 l-85 -808 q-7 -73 -36 -117 q-29 -44 -82 -44 q-45 0 -80.5 32.5 q-35.5 32.5 -43.5 106.5 l71 15 ZM212 -34 q59 79 105.5 170 q46.5 91 80.5 195 q-11 17 -22.5 32.5 q-11.5 15.5 -23.5 29.5 q-11 -30 -22 -58 q-11 -28 -23 -53 l-63 48 q25 51 47.5 122 q22.5 71 41.5 151.5 q19 80.5 31 160.5 l-47 0 l9 87 l237 -1 l-9 -87 l-110 0 q-10 -51 -20 -100 l42 0 q33 0 53 -19.5 q20 -19.5 15 -60.5 q-15 -110 -48.5 -229.5 q-33.5 -119.5 -85.5 -232.5 q-52 -113 -124 -204 l-64 49 ZM519 157 l68 642 l78 0 l-68 -642 l-78 0 ZM376 470 q24 -26 47 -56 q21 80 34 166 l-52 0 q-14 -58 -29 -110 Z" /><glyph glyph-name="uni4F8D" unicode="&#x4f8d;" d="M197 -80 l-89 0 l61 549 q-31 -50 -64 -99 l-68 59 q77 102 136.5 222.5 q59.5 120.5 102.5 238.5 l78 -36 q-32 -94 -80 -192 l-77 -742 ZM775 556 l-9 -83 l-481 0 l9 83 l191 0 l13 127 l-152 0 l9 83 l152 0 l13 122 l87 0 l-13 -122 l164 0 l-9 -83 l-164 0 l-13 -127 l203 0 ZM436 62 q18 -61 58 -61 q28 0 42.5 18 q14.5 18 19.5 64 l21 197 l-297 0 l9 83 l297 0 l9 84 l87 0 l-9 -84 l70 0 l-9 -83 l-70 0 l-23 -210 q-7 -65 -40 -108 q-33 -43 -98 -43 q-55 0 -93.5 33.5 q-38.5 33.5 -50.5 94.5 l77 15 ZM481 129 l-62 -46 q-17 32 -40.5 65 q-23.5 33 -51.5 61 l59 46 q25 -23 52 -58.5 q27 -35.5 43 -67.5 Z" /><glyph glyph-name="uni4F97" unicode="&#x4f97;" d="M185 -80 l-84 0 l62 546 q-21 -42 -44 -85 l-65 48 q62 102 110 222.5 q48 120.5 85 238.5 l78 -28 q-13 -42 -28.5 -84 q-15.5 -42 -32.5 -84 l-81 -774 ZM232 -80 l97 919 l374 0 q36 0 57 -20 q21 -20 17 -57 l-70 -660 q-6 -60 -22 -96.5 q-16 -36.5 -37 -56 q-21 -19.5 -44.5 -26 q-23.5 -6.5 -44.5 -6.5 q-32 0 -61.5 19.5 q-29.5 19.5 -49.5 55 q-20 35.5 -23 82.5 l80 11 q7 -42 20.5 -62.5 q13.5 -20.5 38.5 -20.5 q24 0 39 28 q15 28 22 102 l66 624 l-286 0 l-88 -836 l-85 0 ZM653 669 l-9 -82 l-228 0 l9 82 l228 0 ZM621 434 l-30 -280 l-211 0 l37 349 l144 0 q37 0 50.5 -19 q13.5 -19 9.5 -50 ZM461 232 l65 0 l20 193 l-64 0 l-21 -193 Z" /><glyph glyph-name="uni4F9B" unicode="&#x4f9b;" d="M212 -80 l-90 0 l61 549 q-33 -51 -68 -101 l-68 61 q80 102 141.5 222.5 q61.5 120.5 105.5 238.5 l78 -37 q-35 -96 -84 -195 l-76 -738 ZM744 312 l-10 -92 l-456 0 l10 92 l95 0 l30 276 l-86 0 l10 92 l85 0 l20 186 l84 0 l-20 -186 l92 0 l20 186 l84 0 l-20 -186 l79 0 l-10 -92 l-78 0 l-30 -276 l101 0 ZM467 312 l92 0 l30 276 l-92 0 l-30 -276 ZM340 -83 l-67 50 q39 48 68 103.5 q29 55.5 52 115.5 l76 -36 q-28 -72 -58 -124.5 q-30 -52.5 -71 -108.5 ZM603 185 q23 -62 48.5 -114 q25.5 -52 59.5 -114 l-77 -42 q-33 61 -58.5 117.5 q-25.5 56.5 -48.5 114.5 l76 38 Z" /><glyph glyph-name="uni4F9D" unicode="&#x4f9d;" d="M194 -80 l-89 0 l61 549 q-30 -49 -62 -98 l-67 58 q75 102 133 222.5 q58 120.5 100 238.5 l78 -35 q-16 -47 -35.5 -94 q-19.5 -47 -41.5 -95 l-40 -388 q159 136 246 385 l-155 0 l10 90 l180 0 l14 135 l87 0 l-14 -135 l178 0 l-10 -90 l-176 0 q-2 -146 9 -261 q27 27 50.5 59 q23.5 32 43.5 71 l64 -43 q-29 -51 -65 -94 q-36 -43 -81 -80 q16 -101 46 -175.5 q30 -74.5 71 -130.5 l-67 -60 q-46 69 -78.5 156.5 q-32.5 87.5 -50 200.5 q-17.5 113 -17.5 259 q-22 -61 -50 -116 l-40 -377 q47 25 89 53 l37 -73 q-61 -40 -124 -72.5 q-63 -32.5 -130 -58.5 l-29 78 q38 15 73 31 l29 274 q-25 -30 -51.5 -57.5 q-26.5 -27.5 -54.5 -51.5 l-37 54 l-34 -329 Z" /><glyph glyph-name="uni4FA0" unicode="&#x4fa0;" d="M200 -80 l-88 0 l61 558 q-33 -54 -70 -107 l-66 58 q80 102 141 222.5 q61 120.5 104 238.5 l77 -33 q-34 -95 -82 -192 l-77 -745 ZM228 4 q83 52 137.5 125.5 q54.5 73.5 86.5 177.5 l-174 0 l9 82 l185 0 l34 294 l-167 0 l9 82 l167 0 l14 123 l86 0 l-14 -123 l166 0 l-9 -82 l-167 0 l-34 -294 l182 0 l-9 -82 l-173 0 q7 -102 48.5 -176 q41.5 -74 123.5 -129 l-52 -79 q-77 52 -120.5 120.5 q-43.5 68.5 -61.5 153.5 q-34 -85 -87.5 -150.5 q-53.5 -65.5 -132.5 -116.5 l-47 74 ZM431 454 l-76 -19 q-7 47 -11 97 q-4 50 -6 95 l78 14 q2 -46 5.5 -93.5 q3.5 -47.5 9.5 -93.5 ZM684 428 l-77 24 q19 43 33 90.5 q14 47.5 22 93.5 l77 -17 q-7 -46 -22 -96.5 q-15 -50.5 -33 -94.5 Z" /><glyph glyph-name="uni4FA3" unicode="&#x4fa3;" d="M212 -80 l-89 0 l59 555 q-37 -56 -78 -110 l-67 64 q86 102 152.5 222.5 q66.5 120.5 114.5 238.5 l76 -37 q-39 -102 -92 -203 l-76 -730 ZM757 776 l-31 -291 l-355 0 l39 369 l275 0 q44 0 60.5 -21.5 q16.5 -21.5 11.5 -56.5 ZM464 568 l186 0 l23 203 l-188 0 l-21 -203 ZM728 289 l-39 -359 l-398 0 l46 441 l314 0 q46 0 63.5 -22.5 q17.5 -22.5 13.5 -59.5 ZM387 16 l223 0 l30 270 l-224 0 l-29 -270 Z" /><glyph glyph-name="uni4FA5" unicode="&#x4fa5;" d="M215 -80 l-89 0 l61 549 q-31 -50 -64 -99 l-68 59 q77 102 136.5 222.5 q59.5 120.5 102.5 238.5 l78 -36 q-32 -94 -80 -192 l-77 -742 ZM343 389 l-29 76 q87 33 166 84 q-15 66 -16 152 l-99 -14 l-6 82 l107 15 q4 50 11 104 l83 0 q-6 -48 -9 -93 l200 28 l9 -79 l-212 -31 q0 -31 2 -58.5 q2 -27.5 5 -51.5 q59 47 111 104 l57 -54 q-67 -74 -146 -134 q25 -64 63 -64 q24 0 32.5 23.5 q8.5 23.5 10.5 63.5 l71 -8 q-1 -75 -29.5 -115.5 q-28.5 -40.5 -86.5 -40.5 q-44 0 -77 24.5 q-33 24.5 -55 68.5 q-78 -49 -163 -82 ZM285 -89 l-46 74 q71 47 105.5 115.5 q34.5 68.5 45.5 165.5 l-96 0 l8 82 l431 0 l-8 -82 l-112 0 l-12 -112 q-9 -81 -6 -116.5 q3 -35.5 17 -35.5 q17 0 30 37.5 q13 37.5 22 125.5 l76 -10 q-11 -123 -43 -180.5 q-32 -57.5 -89 -57.5 q-61 0 -83 53.5 q-22 53.5 -9 177.5 l13 118 l-56 0 q-11 -112 -55 -204.5 q-44 -92.5 -133 -150.5 Z" /><glyph glyph-name="uni4FA6" unicode="&#x4fa6;" d="M197 -80 l-89 0 l61 549 q-31 -50 -64 -99 l-68 59 q77 102 136.5 222.5 q59.5 120.5 102.5 238.5 l79 -36 q-33 -94 -81 -193 l-77 -741 ZM380 158 l-88 0 l46 441 l144 0 l30 289 l88 0 l-10 -98 l188 0 l-9 -86 l-188 0 l-11 -105 l85 0 q43 0 62 -23 q19 -23 15 -61 l-37 -357 l-87 0 l36 352 l-228 0 l-36 -352 ZM277 -80 l-48 82 q70 27 118 60 q48 33 75 81.5 q27 48.5 35 118.5 l22 195 l87 0 l-22 -201 q-5 -45 -17 -84 q48 -40 100 -91 q52 -51 93 -106 l-70 -58 q-38 50 -77.5 93 q-39.5 43 -81.5 82 q-33 -54 -86 -96.5 q-53 -42.5 -128 -75.5 Z" /><glyph glyph-name="uni4FA7" unicode="&#x4fa7;" d="M563 78 q4 -28 11 -50 q7 -22 19 -22 q10 0 20 15 q10 15 15 66 l85 801 l76 0 l-86 -814 q-17 -155 -110 -155 q-41 0 -67 37 q-26 37 -32 113 l69 9 ZM177 -80 l-79 0 l61 562 q-27 -51 -56 -98 l-65 45 q68 105 118.5 224 q50.5 119 83.5 234 l69 -25 q-11 -39 -23.5 -78 q-12.5 -39 -27.5 -78 l-81 -786 ZM312 204 l-65 0 l67 635 l202 0 q22 0 36.5 -15.5 q14.5 -15.5 10.5 -47.5 l-63 -572 l-65 0 l60 558 l-123 0 l-60 -558 ZM531 161 l69 657 l70 0 l-69 -657 l-70 0 ZM459 692 l-38 -363 q-7 -71 -20 -128 q30 -52 53 -105 q23 -53 46 -120 l-65 -37 q-15 47 -30.5 87.5 q-15.5 40.5 -32.5 75.5 q-40 -107 -124 -192 l-49 52 q62 61 101.5 150 q39.5 89 53.5 222 l38 358 l67 0 Z" /><glyph glyph-name="uni4FA8" unicode="&#x4fa8;" d="M202 -80 l-90 0 l61 551 q-33 -51 -68 -102 l-68 60 q80 102 141.5 222.5 q61.5 120.5 105.5 238.5 l78 -36 q-34 -96 -84 -196 l-76 -738 ZM281 -82 l-55 68 q75 49 114.5 137.5 q39.5 88.5 52.5 197.5 l3 26 q-34 -40 -70 -70 l-56 63 q49 38 90.5 88.5 q41.5 50.5 73.5 113.5 l-130 0 l9 87 l158 0 q21 59 34 125 q-62 -9 -122 -15 l-17 85 q94 8 185.5 23 q91.5 15 172.5 33 l24 -79 q-73 -19 -157 -34 q-6 -35 -15 -69.5 q-9 -34.5 -21 -68.5 l217 0 l-9 -87 l-122 0 q14 -67 48.5 -120.5 q34.5 -53.5 75.5 -85.5 l-53 -61 q-36 28 -66 70 l-45 -425 l-82 0 l46 445 l68 0 q-49 78 -70 177 l-43 0 q-23 -50 -51 -94.5 q-28 -44.5 -58 -82.5 l69 0 l-5 -47 q-8 -77 -27.5 -148.5 q-19.5 -71.5 -58.5 -135 q-39 -63.5 -108 -116.5 Z" /><glyph glyph-name="uni4FA9" unicode="&#x4fa9;" d="M201 -80 l-90 0 l61 549 q-32 -51 -67 -101 l-68 61 q80 102 141 222.5 q61 120.5 104 238.5 l79 -37 q-35 -96 -84 -196 l-10 -99 q88 62 151.5 144 q63.5 82 111.5 186 l78 -34 q-10 -24 -22 -48 q29 -72 82.5 -140 q53.5 -68 116.5 -116 l-51 -68 q-63 42 -113 104 q-50 62 -83 136 q-92 -143 -228 -236 l-45 55 l-64 -621 ZM648 533 l-9 -86 l-249 0 l9 86 l249 0 ZM611 219 q33 -68 59 -135 q26 -67 41 -125 l-73 -35 q-10 39 -25 82 q-86 -23 -171 -38.5 q-85 -15.5 -177 -26.5 l-13 87 q23 2 44 5 q37 55 66 112 q29 57 52 116 l-131 0 l9 86 l425 0 l-9 -86 l-206 0 q-45 -116 -109 -216 q49 7 96.5 15.5 q47.5 8.5 95.5 20.5 q-11 26 -23.5 53 q-12.5 27 -25.5 53 l75 32 Z" /></font>
</defs>
</svg>
